<?xml version="1.0" standalone="no"?>
<!DOCTYPE svg PUBLIC "-//W3C//DTD SVG 1.1//EN" "http://www.w3.org/Graphics/SVG/1.1/DTD/svg11.dtd" >
<!--
2013-9-30: Created.
-->
<svg>
<metadata>
Created by iconfont
</metadata>
<defs>

<font id="iconfont" horiz-adv-x="1024" >
  <font-face
    font-family="iconfont"
    font-weight="500"
    font-stretch="normal"
    units-per-em="1024"
    ascent="896"
    descent="-128"
  />
    <missing-glyph />
    
    <glyph glyph-name="bianji2" unicode="&#59010;" d="M511.99959131-65.97954608999999a447.41215195 447.41215195 0 0 0-175.1685873 35.36507372 448.72121162 448.72121162 0 0 0-143.03525538 96.44090186 448.39394737 448.39394737 0 0 0-96.44090274 143.03525538A447.24851982 447.24851982 0 0 0 62.01022695 384.00981826a447.28942763 447.28942763 0 0 0 35.36507286 175.14813252 448.68030381 448.68030381 0 0 0 96.44090273 143.05570928 448.33258477 448.33258477 0 0 0 143.03525537 96.42044882A447.18715722 447.18715722 0 0 0 511.99959131 833.99918174a447.0235251 447.0235251 0 0 0 175.14813252-35.38552676 448.33258477 448.33258477 0 0 0 143.03525537-96.42044883 448.63939599 448.63939599 0 0 0 96.42044795-143.05570927A446.9621625 446.9621625 0 0 0 961.98895479 384.00981826a446.92125469 446.92125469 0 0 0-35.36507286-175.14813339 448.39394737 448.39394737 0 0 0-96.42044883-143.03525538 448.72121162 448.72121162 0 0 0-143.03525537-96.44090186A447.41215195 447.41215195 0 0 0 511.99959131-65.97954608999999z m-188.38191094 273.98216073a24.81077724 24.81077724 0 0 1-25.66984834-25.66984833 26.01756651 26.01756651 0 0 1 25.66984834-25.66984746h384.924992a24.81077724 24.81077724 0 0 1 25.66984833 25.66984746 24.81077724 24.81077724 0 0 1-25.66984833 25.66984834zM588.78413984 639.97194961a29.67884385 29.67884385 0 0 1-19.24727255-6.4225749L330.04025528 391.90508584a27.22435664 27.22435664 0 0 1-8.54979786-19.24727256v-96.23636104a27.85843213 27.85843213 0 0 1 27.79707041-25.66984833h96.23636191a26.34483164 26.34483164 0 0 1 19.22681778 8.54979785l239.51706592 239.51706592a26.815275 26.815275 0 0 1 7.97708408 20.35179229 21.66085195 21.66085195 0 0 1-7.97708408 15.99507597l-96.23636104 96.1340915a27.24481055 27.24481055 0 0 1-19.22681865 8.67252217zM374.95737529 304.23897655999997v59.86903887l213.84721846 213.84721845 59.86903974-59.88949365L434.84686895 304.23897655999997z"  horiz-adv-x="1024" />

    
    <glyph glyph-name="gengduozhankai1" unicode="&#59006;" d="M512-66C264.5-66 62 136.5 62 384S264.5 834 512 834s450-202.5 450-450-202.5-450-450-450z m0 853.12500029C288.87499971 787.12500029 108.87499971 607.12500029 108.87499971 384S288.87499971-19.125000290000003 512-19.125000290000003 915.12500029 160.87499971 915.12500029 384 735.12500029 787.12500029 512 787.12500029zM695.75000029 406.5h-151.875v159.37499971c0 15.00000029-13.12499971 28.125-28.125 28.125s-28.125-13.12499971-28.125-28.125v-159.37499971h-159.37500058c-15.00000029 0-28.125-13.12499971-28.125-28.125s13.12499971-28.125 28.125-28.125h159.37500058v-151.875c0-15.00000029 13.12499971-28.125 28.125-28.125s28.125 13.12499971 28.125 28.125v151.875h151.875c15.00000029 0 28.125 13.12499971 28.125 28.125-1.87499971 16.875-13.12499971 28.125-28.125 28.125z"  horiz-adv-x="1024" />

    
    <glyph glyph-name="tupian3" unicode="&#59007;" d="M512-66C264.5-66 62 136.5 62 384S264.5 834 512 834s450-202.5 450-450-202.5-450-450-450z m0 853.12500029C288.87499971 787.12500029 108.87499971 607.12500029 108.87499971 384S288.87499971-19.125000290000003 512-19.125000290000003 915.12500029 160.87499971 915.12500029 384 735.12500029 787.12500029 512 787.12500029zM783.87499971 232.125c0 7.49999971-1.87499971 13.12499971-7.49999971 16.875l-150.00000029 150.00000029c-9.37500029 9.37500029-24.37499971 9.37500029-35.62499971 0l-82.50000029-82.50000029-45 45c-3.75000029 3.75000029-11.25 7.49999971-16.875 7.49999971-7.49999971 0-13.12499971-1.87499971-16.875-7.49999971L305.74999971 241.50000029c-9.37500029-9.37500029-9.37500029-26.25000029 0-35.62500058 3.75000029-3.75000029 11.25-7.49999971 16.875-7.49999971h1.87500058c5.625 0 11.25 1.87499971 14.99999942 5.625l105.00000029 105.00000029 103.12499971-103.12500058c9.37500029-9.37500029 24.37499971-9.37500029 33.75 0s9.37500029 24.37499971 0 35.62500058l-39.375 39.375 65.62500029 65.62499942 133.12500029-133.12499942c3.75000029-3.75000029 11.25-7.49999971 16.875-7.50000058h9.37499942l-1.87499971 1.87500058c3.75000029 1.87499971 5.625 3.75000029 9.37500029 5.625 5.625 5.625 9.37500029 11.25 9.37499942 18.74999971zM427.625 434.625c39.375 0 71.25000029 31.87500029 71.25000029 71.25000029s-31.87500029 71.25000029-71.25000029 71.24999942-71.25000029-31.87500029-71.25000029-71.24999942 31.87500029-71.25000029 71.25000029-71.25000029z m-20.62500029 71.25000029c0 11.25 9.37500029 20.62500029 20.62500029 20.62499942s20.62500029-9.37500029 20.62500029-20.62499942-9.37500029-20.62500029-20.62500029-20.62500029-20.62500029 9.37500029-20.62500029 20.62500029z"  horiz-adv-x="1024" />

    
    <glyph glyph-name="biaoqing2" unicode="&#59008;" d="M512-66C264.5-66 62 136.5 62 384S264.5 834 512 834s450-202.5 450-450-202.5-450-450-450z m0 853.12500029C288.87499971 787.12500029 108.87499971 607.12500029 108.87499971 384S288.87499971-19.125000290000003 512-19.125000290000003 915.12500029 160.87499971 915.12500029 384 735.12500029 787.12500029 512 787.12500029zM361.99999971 447.74999971c15.00000029 0 28.125 13.12499971 28.125 26.25000029v67.5c0 15.00000029-13.12499971 28.125-28.125 28.125s-28.125-13.12499971-28.125-28.125v-67.5c0-15.00000029 13.12499971-26.25000029 28.125-26.25000029zM680.75 447.74999971c15.00000029 0 28.125 13.12499971 28.125 26.25000029v67.5c0 15.00000029-13.12499971 28.125-28.125 28.125s-28.125-13.12499971-28.125-28.125v-67.5c0-15.00000029 13.12499971-26.25000029 28.125-26.25000029zM723.87500029 339c-13.12499971 3.75000029-26.25000029-1.87499971-30.00000058-15.00000029-28.125-74.99999971-99.37500029-127.50000029-180-127.49999942s-153.74999971 52.49999971-180 127.49999942c-3.75000029 13.12499971-18.74999971 18.74999971-29.99999971 15.00000029-11.25-3.75000029-18.74999971-18.74999971-15.00000029-29.99999971 33.75-93.75000029 123.75-157.5 225-159.37500058 99.37500029 0 191.25 63.74999971 225 159.37500058 3.75000029 11.25-1.87499971 26.25000029-14.99999942 29.99999971z"  horiz-adv-x="1024" />

    
    <glyph glyph-name="huashu1" unicode="&#59009;" d="M512-66C264.5-66 62 136.5 62 384S264.5 834 512 834s450-202.5 450-450-202.5-450-450-450z m0 853.12500029C288.87499971 787.12500029 108.87499971 607.12500029 108.87499971 384S288.87499971-19.125000290000003 512-19.125000290000003 915.12500029 160.87499971 915.12500029 384 735.12500029 787.12500029 512 787.12500029zM570.12499971 593.99999971H455.75c-105.00000029 0-191.25-86.24999971-191.25-191.25v-142.49999971c0-48.75000029 39.375-88.12500029 88.12500029-88.12500029h217.49999942c105.00000029 0 191.25 86.24999971 191.25 191.25v37.50000029c0 106.875-86.24999971 193.12499971-191.25 193.12499971zM714.5 402.74999971v-37.49999942c0-80.62499971-63.74999971-144.37500029-144.37500029-144.37500029H350.74999971c-22.5 0-41.24999971 18.74999971-41.24999971 41.24999971V402.74999971c0 80.62499971 63.74999971 144.37500029 144.37500029 144.37500029H568.25c80.62499971 0 146.25-63.74999971 146.25-144.37500029zM457.62499971 445.875c-13.12499971 0-22.5-11.25-22.5-22.5V346.49999971c0-13.12499971 11.25-22.5 22.5-22.5 5.625 0 11.25 1.87499971 16.875 7.50000058 3.75000029 3.75000029 7.49999971 9.37500029 7.50000058 16.875V421.50000029c0 13.12499971-11.25 24.37499971-24.37500058 24.37499971zM558.87499971 445.875c-13.12499971 0-22.5-11.25-22.5-22.5v-108.74999971c0-13.12499971 11.25-22.5 22.5-22.5h3.75000029c11.25 1.87499971 18.74999971 11.25 18.74999971 22.5V421.50000029c0 13.12499971-9.37500029 24.37499971-22.5 24.37499971z"  horiz-adv-x="1024" />

    
    <glyph glyph-name="shangpintuikuanjine" unicode="&#59001;" d="M894.91003613 429.07560175v-2.57851845c2.57851846-7.73555625 5.15703779-12.89259404 12.89259405-18.04963096 7.73555625-5.15703779 15.4711125-7.73555625 23.20666875-5.15703779 15.4711125 2.57851846 28.36370654 15.4711125 28.36370654 30.942225V723.02674102c0 18.04963096-12.89259404 33.52074434-30.94222588 33.52074346s-33.52074434-12.89259404-33.52074345-30.942225v-103.1407506C835.60410459 717.86970323 742.77742871 787.48971036 631.90112276 818.43193535 515.86777813 849.37416036 394.67739658 833.90304785 288.95812753 774.59711631 165.18922666 704.97711006 80.09810791 578.62969072 64.62699453 436.81115888c-2.57851846-33.52074434-2.57851846-69.62000625 0-105.71926992 15.4711125-118.61186309 74.77704404-226.90965058 170.18223838-301.68669462 79.93408183-61.88445 177.91779463-95.40519433 275.90150742-95.40519434 18.04963096 0 38.67778125 0 56.72741309 2.57851846 206.28150117 25.78518721 366.14966396 188.23186933 391.93485205 391.93485205 0 7.73555625-2.57851846 18.04963096-7.73555625 23.20666875-5.15703779 7.73555625-12.89259404 10.31407471-23.20666963 12.89259404-18.04963096 2.57851846-33.52074434-10.31407471-36.09926191-28.36370654-25.78518721-211.43853809-219.17409433-360.99262617-430.61263331-335.20743897-172.76075684 25.78518721-309.42225176 162.44668213-332.6289205 335.20743897-2.57851846 30.942225-2.57851846 61.88445 0 92.826675 25.78518721 211.43853809 219.17409433 360.99262617 430.6126333 335.20743896 175.33927617-20.62815029 314.57928867-159.86816279 335.20743897-335.20743896zM711.83520371 354.29855770999995c18.04963096 0 30.942225 15.4711125 30.94222501 33.52074434 0 18.04963096-15.4711125 30.942225-30.942225 30.942225h-141.81853184l134.08297558 134.08297558c5.15703779 5.15703779 10.31407471 12.89259404 10.31407559 23.20666875 0 7.73555625-2.57851846 18.04963096-7.73555625 23.20666875-12.89259404 12.89259404-33.52074434 12.89259404-46.41333838 2.57851934l-139.2400125-139.24001338L379.20628408 601.8363594699999c-12.89259404 12.89259404-33.52074434 12.89259404-46.41333838-2.57851934-12.89259404-12.89259404-12.89259404-33.52074434 0-46.4133375l134.08297559-134.08297558h-141.81853184c-7.73555625 0-18.04963096-2.57851846-23.20666875-7.73555625-5.15703779-5.15703779-10.31407471-15.4711125-10.31407471-23.20666875 0-18.04963096 12.89259404-33.52074434 30.942225-33.52074434h162.44668214v-46.4133375h-159.86816368c-18.04963096 0-33.52074434-12.89259404-33.52074346-30.942225 0-7.73555625 2.57851846-18.04963096 7.73555625-23.20666875 5.15703779-5.15703779 12.89259404-10.31407471 23.20666875-10.31407471H487.50407158v-110.87630683c0-7.73555625 5.15703779-18.04963096 10.31407559-23.20666875 5.15703779-5.15703779 12.89259404-7.73555625 23.20666875-7.73555625h2.57851846c18.04963096 0 30.942225 15.4711125 30.942225 30.942225v110.87630683h162.44668213c7.73555625 0 18.04963096 5.15703779 23.20666875 10.31407471 5.15703779 7.73555625 7.73555625 15.4711125 7.73555625 23.20666875 0 18.04963096-15.4711125 30.942225-30.942225 30.942225h-162.44668214v46.4133375h157.28964435z"  horiz-adv-x="1024" />

    
    <glyph glyph-name="jiaoyijine" unicode="&#59002;" d="M858.56372773 669.62874258l26.94610723-5.38922198h5.38922197c5.38922197 0 10.77844307 2.69461055 16.16766505 5.38922198 8.08383252 5.38922197 10.77844307 10.77844307 13.4730536 21.55688613v2.69461054c2.69461055 8.08383252 0 16.16766503-5.38922196 24.25149757-5.38922197 8.08383252-10.77844307 10.77844307-21.55688614 13.47305361L764.25235068 755.85628711c-16.16766503 2.69461055-35.02993974-8.08383252-37.72455117-24.25149668v-2.69461055c-2.69461055-8.08383252 0-16.16766503 5.38922109-24.25149756 5.38922197-5.38922197 10.77844307-10.77844307 18.86227559-13.47305361 0-2.69461055 2.69461055-2.69461055 2.69461142-5.3892211 78.14371289-64.67065839 129.34131768-153.59281435 142.81437042-253.29341337 18.86227559-156.2874249-56.58682676-307.18562871-194.0119752-385.32934161-78.14371289-45.80838281-169.7604794-61.97604786-258.68263535-45.80838281-16.16766503 2.69461055-29.64071865-8.08383252-35.02993975-24.25149755-2.69461055-16.16766503 8.08383252-32.3353292 24.25149668-35.02993975 26.9461081-5.38922197 53.89221533-8.08383252 78.14371289-8.08383252 78.14371289 0 153.59281435 21.55688613 220.9580833 59.28143731 48.50299424 26.9461081 91.61676651 64.67065839 126.64670713 107.78443066 140.11976075 169.7604794 132.03592823 406.88622773 0 568.56287461zM246.88708086 101.06586797h-5.38922198c-26.9461081 24.25149668-48.50299424 53.89221533-67.36526894 86.22754541-37.72455117 64.67065839-56.58682676 140.11976075-51.19760478 215.5688622C133.71342823 618.43113779 316.94696123 782.80239521 532.51582344 769.3293416c16.16766503 0 29.64071865 13.47305362 29.64071865 29.64071866 0 16.16766503-13.47305362 29.64071865-29.64071865 29.64071776-86.22754453 5.38922197-172.45508994-16.16766503-247.90419141-59.28143642C74.43199092 650.766467-1.01711055 375.91616748 122.93498516 160.34730528l24.25149668-40.41916172-29.64071866 5.38922196c-8.08383252 2.69461055-18.86227559 0-24.25149667-5.38922196-8.08383252-5.38922197-10.77844307-10.77844307-13.47305362-21.55688614v-2.69461055c-2.69461055-16.16766503 8.08383252-35.02993974 24.25149669-37.72455117l129.34131766-24.25149667h5.3892211c16.16766503 0 26.9461081 10.77844307 32.33532919 26.94610722v2.69461143c2.69461055 8.08383252 0 16.16766503-5.38922109 24.25149667-2.69461055 8.08383252-10.77844307 10.77844307-18.86227558 13.47305362zM481.31821865 200.76646700000003c0-16.16766503 13.47305362-32.3353292 29.64071865-32.33532921h10.77844307c16.16766503 0 29.64071865 13.47305362 29.64071865 32.3353292V268.13173682h102.39520957c16.16766503 0 29.64071865 13.47305362 29.64071865 32.3353292v5.38922109 2.69461143c0 16.16766503-13.47305362 29.64071865-32.33533007 29.64071865H548.6834876V402.86227559h102.39520957c16.16766503 0 29.64071865 13.47305362 29.64071865 32.3353292v5.38922196 2.69461055c0 16.16766503-13.47305362 29.64071865-32.3353292 29.64071866h-110.47904209l83.53293487 78.14371201c13.47305362 13.47305362 13.47305362 32.3353292 2.69461054 45.80838369-13.47305362 13.47305362-35.02993974 16.16766503-48.50299424 2.69461055L513.65354785 537.59281435l-64.6706584 67.36526983c-10.77844307 13.47305362-32.3353292 13.47305362-45.80838369 2.69461054-13.47305362-13.47305362-16.16766503-35.02993974-2.69461055-48.50299423l80.83832344-86.22754453h-107.78443154-2.69461055c-16.16766503 0-29.64071865-13.47305362-29.64071865-32.3353292V432.50299424c0-16.16766503 13.47305362-29.64071865 32.3353292-29.64071865h107.78443154v-64.6706584h-107.78443154-2.69461055c-16.16766503 0-29.64071865-13.47305362-29.64071865-32.33533008V297.77245546999995c0-16.16766503 13.47305362-29.64071865 32.3353292-29.64071865h107.78443154v-67.36526982z"  horiz-adv-x="1024" />

    
    <glyph glyph-name="yuezhifujine" unicode="&#59003;" d="M875.56707354 405.95121972c-41.15853633 54.87804844-90.54878027 98.78048789-145.42682959 134.45121973l19.2073166 19.2073166c2.74390224 2.74390224 5.48780449 8.23170761 8.23170762 10.97560987 43.90243945 57.62195156 32.92682959 139.93902422-24.69512198 183.84146367-30.18292646 21.95121972-68.59756055 32.92682959-107.01219463 32.92682871h-21.95121972c-2.74390224 0-2.74390224 0-5.48780538 2.74390225C576.48170762 814.79268252 546.29878027 831.25609776 513.37195156 834h-2.74390312c-32.92682959-5.48780449-63.10975606-19.20731748-85.0609749-43.90243945-2.74390224-2.74390224-2.74390224-2.74390224-5.48780537-2.74390225H395.38414619c-38.41463408 0-76.82926817-10.97560987-109.75609775-35.67073184-32.92682959-27.43902422-52.13414619-68.59756055-52.1341462-109.75609687 2.74390224-41.15853633 24.69512197-82.31707354 57.62195157-107.01219551-54.87804844-35.67073183-104.26829238-79.57317041-142.68292735-134.45121973-52.13414619-71.34146367-79.57317041-153.65853633-82.31707265-241.46341435v-19.20731748c0-112.5 93.29268252-205.79268252 205.79268252-205.79268252H776.78658565c101.52439013 0 183.84146367 85.06097578 183.84146279 186.58536592v43.90243858c-2.74390224 87.80487803-32.92682959 172.86585381-85.0609749 241.46341523zM365.20121972 501.98780449l2.74390225 2.74390312c8.23170761 2.74390224 13.71951211 10.97560987 16.46341436 19.20731661 2.74390224 8.23170761 2.74390224 16.46341435-2.74390225 24.69512197-2.74390224 5.48780449-5.48780449 10.97560987-10.97560986 13.71951211l-2.74390225 2.74390225C335.01829238 581.56097578 299.34756055 614.4878044899999 299.34756055 644.67073184c0 21.95121972 8.23170761 41.15853633 24.69512197 54.87804843 19.20731748 13.71951211 43.90243945 21.95121972 68.59756143 21.95121973h5.48780449c8.23170761 0 16.46341435 0 24.69512197-2.74390224 10.97560987-2.74390224 19.20731748 0 27.4390251 5.48780448 5.48780449 5.48780449 10.97560987 8.23170761 19.2073166 16.46341524 10.97560987 10.97560987 30.18292646 27.43902422 38.41463408 27.43902422 16.46341435-2.74390224 30.18292646-13.71951211 43.90243946-24.69512198 5.48780449-8.23170761 10.97560987-13.71951211 16.46341435-19.20731748h2.74390224c5.48780449-5.48780449 13.71951211-5.48780449 21.95121974-5.48780448h2.74390224c5.48780449 2.74390224 13.71951211 2.74390224 21.95121973 2.74390224 24.69512197 0 52.13414619-5.48780449 71.34146367-19.20731748 16.46341435-13.71951211 27.43902422-32.92682959 24.69512197-54.87804844 0-8.23170761-5.48780449-41.15853633-65.85365918-82.31707353l-2.74390225-2.74390225c-5.48780449-2.74390224-8.23170761-8.23170761-10.97560986-13.71951211-2.74390224-8.23170761-5.48780449-16.46341435-2.74390225-24.69512197 2.74390224-8.23170761 8.23170761-13.71951211 16.46341436-19.2073166l2.74390313-2.74390313c65.8536583-32.92682959 123.47560987-79.57317041 167.37804844-139.93902421 43.90243945-57.62195156 68.59756055-128.96341435 68.59756054-200.30487804V120.58536591999996c0-65.8536583-52.13414619-117.98780449-117.98780449-117.98780537H249.95731748c-65.8536583 0-117.98780449 52.13414619-117.98780537 117.98780537v38.41463408c0 74.08536592 24.69512197 142.68292646 68.59756143 200.30487802 41.15853633 60.36585381 98.78048789 109.75609776 164.63414618 142.68292648zM406.35975606 216.62195155999996h76.82926816v-19.20731748h-76.82926816c-19.20731748 0-35.67073183-16.46341435-35.67073184-35.67073184 0-19.20731748 16.46341435-35.67073183 35.67073184-35.67073183h76.82926816v-57.62195068c0-16.46341435 13.71951211-32.92682959 32.92682959-32.9268296 16.46341435 0 32.92682959 13.71951211 32.92682871 32.9268296v57.62195068h76.82926904c19.20731748 0 35.67073183 16.46341435 35.67073096 35.67073183s-16.46341435 35.67073183-35.67073096 35.67073184h-76.82926904v19.20731748h79.57317129c19.20731748 0 32.92682959 13.71951211 35.67073184 32.92682871 0 19.20731748-13.71951211 35.67073183-32.92682959 35.67073184h-60.36585382l57.62195157 96.03658565v2.74390224c8.23170761 13.71951211 2.74390224 32.92682959-13.71951211 41.15853633-8.23170761 5.48780449-16.46341435 5.48780449-24.69512197 2.74390312-8.23170761-2.74390224-13.71951211-8.23170761-19.20731749-13.71951299l-52.13414618-93.29268251-54.87804844 96.03658564c-5.48780449 8.23170761-10.97560987 10.97560987-19.20731749 13.71951211-8.23170761 2.74390224-16.46341435 0-24.69512196-2.74390225-13.71951211-8.23170761-19.20731748-27.43902422-10.97560987-43.90243945l57.62195157-96.03658565h-57.62195157c-19.20731748 0-35.67073183-16.46341435-35.67073184-35.67073183s13.71951211-35.67073183 32.9268296-35.67073096z"  horiz-adv-x="1024" />

    
    <glyph glyph-name="zhifuyongjinjine" unicode="&#59004;" d="M190.50547168 737.57542558a32.17883378 32.17883378 0 0 0 32.12287031 32.17883379h578.40753692a32.20681465 32.20681465 0 0 0 32.23479638-32.17883379v-69.75811406L515.79150576 609.47568692 190.50547168 667.81731153zM222.93613935 834A96.59246396 96.59246396 0 0 1 126.4276206 737.57542558v-96.45255527a32.20681465 32.20681465 0 0 1 26.38664385-31.6471834l357.49284873-64.3576667a36.06827519 36.06827519 0 0 1 5.59631953-0.44770518 38.16689502 38.16689502 0 0 1 5.87613428 0.44770518l349.76992939 64.3576667a32.20681465 32.20681465 0 0 1 26.30269864 31.6471834V737.57542558A96.56448222 96.56448222 0 0 1 801.37165801 834zM833.49452832 512.46349951v-482.0389251a32.09488857 32.09488857 0 0 0-32.23479726-32.06690771H222.65632373a32.01094423 32.01094423 0 0 0-32.12287031 32.06690771V512.46349951a32.17883378 32.17883378 0 1 1-64.3576667 0v-481.89901729a96.73237178 96.73237178 0 0 1 96.50851875-96.56448222h578.57542558a96.64842656 96.64842656 0 0 1 96.42457442 96.39659268V512.46349951a32.09488857 32.09488857 0 1 1-64.18977715 0M587.98401963 439.40355703l-76.55764219-74.06728067-73.64755635 73.56361202a32.12287031 32.12287031 0 0 1-45.52605439-45.35816484l74.45902324-73.95535372h-51.40218955a32.17883378 32.17883378 0 1 1 0-64.35766669h64.35766758v-32.09488858h-64.35766758a32.26277812 32.26277812 0 0 1 0-64.52555713h64.35766758v-64.58151972a32.17883378 32.17883378 0 1 1 64.3576667 0v64.58151972h64.35766668a32.26277812 32.26277812 0 0 1 0 64.52555713h-64.35766668v32.29075987h64.35766668a32.09488857 32.09488857 0 1 1 0 64.18977714h-52.10172859l76.33379003 73.75948242a32.01094423 32.01094423 0 0 1-13.45914756 53.78062412 32.71048417 32.71048417 0 0 1-8.78622012 1.2032086 31.81507295 31.81507295 0 0 1-22.38527548-9.03805488"  horiz-adv-x="1024" />

    
    <glyph glyph-name="xianxiashouyinjine" unicode="&#59005;" d="M254.85714248-65.94424482H62V448.34146933h192.85714248z m-128.57142832 64.36934736h64.36934736V384.08363232H126.28571416z m0 0M574.50154854-65.97212285H222.79791816a32.1986127 32.1986127 0 1 0 0 64.36934736H564.91165917l319.39350734 260.51604521a89.98884932 89.98884932 0 0 1-50.7093293 28.79754698c-39.47466269 0-134.73237481-44.85503672-211.28422763-80.84500049-21.27059825-9.89654326-43.26601377-20.35063828-63.83967276-29.71750782a152.23949912 152.23949912 0 0 0-87.50774443-11.73646318l-156.78354551 25.31284805a32.1986127 32.1986127 0 0 0 10.25895146 63.44938653l156.78354639-25.31284805a88.14892852 88.14892852 0 0 1 50.65357412 6.77425342c20.18337276 9.14384795 41.00792959 18.95675888 63.03122315 29.3272207 95.06256943 44.77140352 184.8562752 87.033825 238.66001718 87.033825a131.61008584 131.61008584 0 0 0 81.87647168-34.9863706 291.68318672 291.68318672 0 0 0 39.02862041-39.61405108 34.15004297 34.15004297 0 0 0-4.96220976-48.11671407l-351.56424287-286.86036445a37.16082246 37.16082246 0 0 0-23.50080528-8.36327548z m-17.11683809 58.20840088z m351.56424287 286.86036445z m0 0M626.27022705 226.71465703L311.56015362 383.97212285H222.71428584v64.36934649h103.98339755l328.1191919-164.08747354z m-79.59050947 168.1854794v48.64638779h-58.0690125c-12.54491367 0-18.84524854 5.7427831-18.84524854 17.33985878 1.03147031 9.42262383 7.41543838 15.16540693 18.84524854 17.3398588h58.0690125v26.67885029h-58.0690125c-12.54491367 0-18.84524854 5.7427831-18.84524854 17.33985879 1.03147031 9.42262383 7.41543838 15.16540693 18.84524854 17.33985879h32.95130713l-50.17965557 70.61392617a17.33985878 17.33985878 0 0 0-6.30033487 17.33985879 29.49448623 29.49448623 0 0 0 29.71750782 29.71750781 35.23726934 35.23726934 0 0 0 23.55656045-12.54491455l58.0690125-83.18671787 58.0690125 83.18671787a29.3272207 29.3272207 0 0 0 53.38557774-17.33985879 23.33353974 23.33353974 0 0 0-6.30033487-17.33985879l-50.17965557-70.61392617h32.95130714a21.80027286 21.80027286 0 0 0 18.84524853-17.33985879 16.92169453 16.92169453 0 0 0-18.84524853-17.33985879h-58.0690125v-26.67885029h58.0690125a21.80027286 21.80027286 0 0 0 18.84524853-17.33985879 16.92169453 16.92169453 0 0 0-18.84524853-17.33985879h-58.0690125v-48.6463878a25.954033 25.954033 0 0 0-29.71750694-26.67885029q-29.71750693 0-29.71750694 26.67885029z m0 0M833.42857168 512.59930635a256.47379541 256.47379541 0 0 0-87.2568457-192.85714336h87.31260087a321.42857168 321.42857168 0 1 1-578.62718437 192.85714336 325.1084124 325.1084124 0 0 1 6.38396807-64.36934737h66.04200175a257.17073467 257.17073467 0 1 0 506.17333653 64.36934737z m0 0"  horiz-adv-x="1024" />

    
    <glyph glyph-name="liaotian" unicode="&#59241;" d="M930.90909125 562.9090912500001c-21.81818156 52.36363594-56.72727281 104.72727281-100.36363687 144-43.63636406 43.63636406-91.63636406 74.18181844-144.00000001 96-56.72727281 21.81818156-117.81818156 34.90909125-178.90909031 34.90909031-61.09090875 0-122.18181844-13.09090875-174.54545531-34.90909031-52.36363594-21.81818156-104.72727281-56.72727281-144-100.36363687-39.27272719-39.27272719-74.18181844-87.27272719-96-144-21.81818156-43.63636406-30.54545437-91.63636406-34.90909031-139.63636313v-423.27272719c0-34.90909125 30.54545437-65.45454562 65.45454562-65.45454562h445.09090875v4.36363594c104.72727281 13.09090875 200.72727281 61.09090875 274.90909125 139.63636406 82.90909125 87.27272719 126.54545438 196.36363594 126.54545438 314.1818175-4.36363594 56.72727281-13.09090875 117.81818156-39.27272719 174.54545531z m-135.27272719-449.45454562c-69.81818156-74.18181844-161.45454563-117.81818156-261.8181825-122.18181844H128V379.63636406c0 104.72727281 39.27272719 200.72727281 113.45454562 274.90909031C306.90909125 733.09090875 407.27272719 772.36363594 507.63636406 772.36363594c52.36363594 0 104.72727281-8.72727281 152.72727188-30.54545438 48-17.45454563 87.27272719-48 126.54545531-82.90909031 34.90909125-34.90909125 65.45454562-78.54545438 82.90909031-122.18181844 21.81818156-48 30.54545437-100.36363594 30.54545438-152.72727281 4.36363594-100.36363594-34.90909125-196.36363594-104.72727188-270.54545437zM464 384c0-26.18181844 21.81818156-48 48-48s48 21.81818156 48 48-21.81818156 48-48 48-48-21.81818156-48-48zM682.18181844 384c0-17.45454563 8.72727281-34.90909125 26.1818175-43.63636406s34.90909125-8.72727281 48 0 26.18181844 26.18181844 26.18181843 43.63636406c0 26.18181844-21.81818156 48-48 48s-52.36363594-21.81818156-52.36363593-48zM241.45454562 384c0-26.18181844 21.81818156-48 48.00000001-48S337.45454563 357.81818155999997 337.45454563 384s-17.45454563 48-48.00000001 48-48-21.81818156-48-48z"  horiz-adv-x="1024" />

    
    <glyph glyph-name="bianji11" unicode="&#59000;" d="M826.82254279 61.8185029c0-26.2353491-20.98827961-47.22280472-52.47069818-47.22280472H191.93121087c-26.2353491 0-47.22362869 20.98745563-47.22362869 47.22280472V644.2399606c0 26.2353491 20.98827961 52.47069818 47.2236287 52.470699h425.00936234V749.17970984H191.93121087c-52.47069818 0-99.69432687-47.22362869-99.69432687-104.94139719v-582.42063372c0-52.47069818 47.22362869-99.6935029 99.69432688-99.69350291h582.42063373c57.71694452 0 104.94139718 47.22362869 104.94139718 99.69350291V486.82868921h-52.470699V61.81767892000005zM916.02190671 749.18053381L879.29241782 785.91002271c-15.7412093 15.74038531-26.2353491 26.2353491-36.7294889 15.74038531l-15.74038614-20.9874548 83.95229362-83.95311759 15.74121011 15.74120929c10.4941398 15.7412093 0 26.2353491-10.4941398 36.72948889zM401.8123573 360.8998364l-10.4941398-10.49413899-26.23534909-115.434713 110.1876427 26.23534908 10.49413979 15.7412093 398.7748364 393.52694293L795.34012421 754.4276033z"  horiz-adv-x="1024" />

    
    <glyph glyph-name="jinru" unicode="&#58998;" d="M313.236 725.89l307.925-341.923-307.925-341.923a50.829 50.829 0 0 1 0-66.225 39.27 39.27 0 0 1 59.56 0l337.452 375.035a50.829 50.829 0 0 1 0 66.225L372.796 792.115a39.27 39.27 0 0 1-59.56 0 50.618 50.618 0 0 1 0-66.225z"  horiz-adv-x="1024" />

    
    <glyph glyph-name="fanhui" unicode="&#58999;" d="M283.96 384.014L700.307 805.875l39.651-80.366-337.102-341.495L739.96 42.49l-39.65-80.366z"  horiz-adv-x="1024" />

    
    <glyph glyph-name="gengduo" unicode="&#58989;" d="M62 384a90 90 0 1 1 180 0 90 90 0 1 1-180 0zM422 384a90 90 0 1 1 180 0 90 90 0 1 1-180 0zM782 384a90 90 0 1 1 180 0 90 90 0 1 1-180 0z"  horiz-adv-x="1024" />

    
    <glyph glyph-name="fasong" unicode="&#58990;" d="M512 834C262.625 834 62 633.375 62 384s200.625-450 450-450 450 200.625 450 450S761.375 834 512 834z m202.5-391.875c-1.875-1.875-1.875-3.75-3.75-3.75-7.5-9.375-18.75-9.375-28.125-3.75l-3.75 3.75L538.25 575.25v-414.375c0-13.125-7.5-20.625-20.625-20.625-15 0-20.625 7.5-20.625 20.625v412.5l-135-135c-5.625-7.5-16.875-9.375-26.25-3.75l-3.75 3.75c-7.5 5.625-9.375 18.75-3.75 26.25l3.75 3.75L502.625 639c3.75 3.75 9.375 7.5 15 7.5s11.25-3.75 16.875-7.5l176.25-170.625c7.5-5.625 9.375-18.75 3.75-26.25z"  horiz-adv-x="1024" />

    
    <glyph glyph-name="cha1" unicode="&#58991;" d="M921.5-54.72c-8.766 0-14.61 2.921-20.455 8.765L82.864 772.227c-11.689 11.689-11.689 29.221 0 40.91s29.22 11.688 40.909 0l818.182-818.182c11.688-11.689 11.688-29.221 0-40.91-5.845-5.844-11.689-8.766-20.455-8.766zM103.318-54.72c-8.766 0-14.61 2.921-20.454 8.765-11.689 11.689-11.689 29.221 0 40.91L901.045 813.136c11.689 11.689 29.221 11.689 40.91 0s11.688-29.22 0-40.909L123.773-45.955c-5.844-5.844-11.689-8.766-20.455-8.766z"  horiz-adv-x="1024" />

    
    <glyph glyph-name="mima" unicode="&#58992;" d="M633.935 587.226H387.161c-14.516 0-29.032 0-40.645-2.903V709.16c0 23.226 17.42 40.645 40.645 40.645h246.774c23.226 0 40.646-17.419 40.646-40.645v-34.838c0-23.226 17.419-40.646 40.645-40.646 23.226 0 40.645 17.42 40.645 40.646V709.16C758.774 778.84 703.613 834 636.839 834H390.065c-69.678 0-124.84-55.161-121.936-124.839v-148.064C146.194 514.645 62 395.613 62 259.16 62 79.161 210.065-66 390.065-66h246.774C813.935-66 962 79.161 962 259.161S813.935 587.226 633.935 587.226z m0-571.936H387.161c-133.548 0-243.87 110.323-243.87 243.871s110.322 243.871 243.87 243.871h246.774c133.549 0 243.871-110.322 243.871-243.87S770.387 15.29 633.936 15.29zM512 398.516c-23.226 0-40.645-17.42-40.645-40.645v-206.13c0-23.225 17.42-40.644 40.645-40.644 23.226 0 40.645 17.42 40.645 40.645V357.87c0 23.226-17.42 40.645-40.645 40.645z"  horiz-adv-x="1024" />

    
    <glyph glyph-name="sousuo" unicode="&#58993;" d="M920.278-24.278a46.73 46.73 0 0 0-65.878 0L656.703 173.387a46.601 46.601 0 0 0 65.878 65.877L920.245 41.6a46.73 46.73 0 0 0 0.033-65.878zM450.017 86.383a358.788 358.788 0 1 0 140.062 28.298 357.523 357.523 0 0 0-140.062-28.298z m0 625.673a265.911 265.911 0 1 1 188.026-77.884 264.159 264.159 0 0 1-188.026 77.884z"  horiz-adv-x="1024" />

    
    <glyph glyph-name="shouji" unicode="&#58994;" d="M294.572 780.232h399.865q79.972 0 79.972-86.099v-624.081q0-86.063-79.972-86.1H294.572q-79.972 0-79.972 86.1V694.17q0 86.062 79.936 86.062zM269.884 760.276a45.086 45.086 0 0 1-44.536-45.6V53.36a45.086 45.086 0 0 1 44.536-45.6h445.463a45.086 45.086 0 0 1 44.535 45.6V714.677a45.086 45.086 0 0 1-44.535 45.599z m0 45.599h445.463a90.171 90.171 0 0 0 89.107-91.198V53.36a90.171 90.171 0 0 0-89.107-91.198H269.884a90.171 90.171 0 0 0-89.108 91.198V714.677a90.171 90.171 0 0 0 89.108 91.198zM388.412 713.43h208.003a30.632 30.632 0 0 0 34.667-34.668 30.632 30.632 0 0 0-34.667-34.667H388.412a30.632 30.632 0 0 0-34.667 34.667 30.632 30.632 0 0 0 34.667 34.667zM492.413 158.572a51.065 51.065 0 0 0 57.779-57.779 51.065 51.065 0 0 0-57.779-57.778 51.065 51.065 0 0 0-57.778 57.778 51.065 51.065 0 0 0 57.778 57.779z"  horiz-adv-x="1024" />

    
    <glyph glyph-name="tuichu" unicode="&#58995;" d="M887.117 654.34l-4.095 4.095A456.776 456.776 0 0 1 702.818 797.684a45.051 45.051 0 0 1-32.764 0 69.624 69.624 0 0 1-24.574-24.573 38.13 38.13 0 0 1 24.574-49.147 357.664 357.664 0 0 0 151.535-118.77 347.22 347.22 0 0 0 40.955-344.026 301.596 301.596 0 0 0-77.815-110.58 307.166 307.166 0 0 0-114.675-73.72 364.503 364.503 0 0 0-278.497 0 422.332 422.332 0 0 0-114.675 73.72 415.616 415.616 0 0 0-77.816 110.58 346.032 346.032 0 0 0 40.956 344.025 334.606 334.606 0 0 0 151.535 118.771 41.775 41.775 0 0 1 24.573 49.147 45.624 45.624 0 0 1-57.337 24.573 459.11 459.11 0 0 1-184.3-143.344 430.646 430.646 0 0 1-49.146-425.936 399.561 399.561 0 0 1 94.197-139.249 464.434 464.434 0 0 1 139.249-94.197 427.78 427.78 0 0 1 172.012-32.765 511.943 511.943 0 0 1 172.013 32.765 399.561 399.561 0 0 1 139.248 94.197 399.561 399.561 0 0 1 94.198 139.249 420.94 420.94 0 0 1-49.147 425.936zM526.71 482.327a45.46 45.46 0 0 1 45.05 45.051V760.824a45.051 45.051 0 0 1-90.101 0v-237.541a48.123 48.123 0 0 1 45.05-40.956z"  horiz-adv-x="1071" />

    
    <glyph glyph-name="shangpinxinxi" unicode="&#58996;" d="M871.83-37.831H262.167a170.5 170.5 0 0 0-172.041 168.52 28.099 28.099 0 0 0 0.22 3.41l61.517 505.047A170.537 170.537 0 0 0 323.903 805.868h486.191a170.537 170.537 0 0 0 172.005-166.722l61.553-504.973a28.099 28.099 0 0 0 0.22-3.264 170.5 170.5 0 0 0-172.041-168.74zM148.598 129.11A112.579 112.579 0 0 1 262.13 19.504h609.7a112.579 112.579 0 0 1 113.35 109.57l-61.297 504.863a28.062 28.062 0 0 0-0.22 3.411A112.542 112.542 0 0 1 809.947 748.57H323.903a112.542 112.542 0 0 1-113.532-111.222 28.099 28.099 0 0 0-0.22-3.411zM566.999 345.171a183.413 183.413 0 0 0-183.12 183.157 29.346 29.346 0 1 0 58.692 0 124.39 124.39 0 0 1 248.745 0 29.346 29.346 0 1 0 58.692 0 183.413 183.413 0 0 0-183.01-183.157z"  horiz-adv-x="1157" />

    
    <glyph glyph-name="zhanghao" unicode="&#58997;" d="M512.964 330.163h5.62c103.957 0 196.676 61.813 236.012 157.341 2.81 11.24 2.81 19.668 0 30.907s-11.239 16.858-22.478 22.477c-19.667 8.43-44.954-2.81-53.383-22.477-28.097-64.623-89.91-106.768-162.961-106.768h-5.62c-92.718 0-171.389 75.861-174.199 168.58 0 33.717 11.239 67.433 30.907 92.72 14.048 19.667 28.096 33.716 44.954 44.954 39.336 28.097 87.1 39.336 134.864 30.907 47.765-8.43 89.91-33.716 118.006-73.052 5.62-8.429 11.24-19.667 16.858-30.906 2.81-8.43 11.24-16.858 22.478-22.477 11.238-2.81 19.667-2.81 30.906 0 19.668 8.429 30.906 33.716 22.477 53.383-8.429 16.858-16.858 33.716-28.096 47.765-16.858 25.287-36.526 44.954-61.813 61.812C549.49 869.62 386.53 841.523 302.24 723.517c-28.096-42.145-44.954-89.91-44.954-140.484 5.619-140.483 118.006-252.87 255.68-252.87z m255.68-33.716H254.475c-98.338 0-179.819-81.48-179.819-179.819 0-98.338 81.48-179.818 179.819-179.818h514.17c98.337 0 179.818 81.48 179.818 179.818 0 98.339-81.48 179.82-179.819 179.82z m95.529-179.819c0-25.287-8.43-50.574-28.097-70.241s-42.145-30.907-70.242-30.907H254.475c-53.384 0-98.338 44.955-98.338 98.339 0 56.193 42.145 101.148 98.338 101.148h514.17c53.383-2.81 95.528-44.955 95.528-98.339z"  horiz-adv-x="1024" />

    
    <glyph glyph-name="biaoqing" unicode="&#58984;" d="M512-66C264.5-66 62 136.5 62 384S264.5 834 512 834s450-202.5 450-450-202.5-450-450-450z m0 881.25C273.875 815.25 80.75 622.125 80.75 384S273.875-47.25 512-47.25 943.25 145.875 943.25 384 750.125 815.25 512 815.25zM362 564c13.125 0 22.5-9.375 22.5-22.5V474c0-13.125-9.375-22.5-22.5-22.5s-22.5 9.375-22.5 22.5v67.5c0 13.125 9.375 22.5 22.5 22.5z m318.75 0c13.125 0 22.5-9.375 22.5-22.5V474c0-13.125-9.375-22.5-22.5-22.5s-22.5 9.375-22.5 22.5v67.5c0 13.125 9.375 22.5 22.5 22.5zM513.875 151.5C414.5 151.5 324.5 215.25 290.75 309c-3.75 11.25 1.875 24.375 13.125 28.125S328.25 335.25 332 324c28.125-76.875 101.25-127.5 181.875-127.5S667.625 249 695.75 324c3.75 11.25 16.875 16.875 28.125 13.125S740.75 320.25 737 309c-33.75-93.75-123.75-157.5-223.125-157.5z"  horiz-adv-x="1024" />

    
    <glyph glyph-name="gengduozhankai" unicode="&#58985;" d="M512-66C264.5-66 62 136.5 62 384S264.5 834 512 834s450-202.5 450-450-202.5-450-450-450z m0 881.25C273.875 815.25 80.75 622.125 80.75 384S273.875-47.25 512-47.25 943.25 145.875 943.25 384 750.125 815.25 512 815.25zM328.25 402.75h367.5c13.125 0 22.5-9.375 22.5-22.5s-9.375-22.5-22.5-22.5h-367.5c-13.125 0-22.5 9.375-22.5 22.5s9.375 22.5 22.5 22.5zM493.25 200.25v367.5c0 13.125 9.375 22.5 22.5 22.5s22.5-9.375 22.5-22.5v-367.5c0-13.125-9.375-22.5-22.5-22.5s-22.5 9.375-22.5 22.5z"  horiz-adv-x="1024" />

    
    <glyph glyph-name="huashu" unicode="&#58987;" d="M512-66C264.5-66 62 136.5 62 384S264.5 834 512 834s450-202.5 450-450-202.5-450-450-450z m0 881.25C273.875 815.25 80.75 622.125 80.75 384S273.875-47.25 512-47.25 943.25 145.875 943.25 384 750.125 815.25 512 815.25zM570.125 177.75H350.75c-45 0-82.5 37.5-82.5 82.5v142.5c0 103.125 82.5 187.5 185.625 187.5H568.25c103.125 0 185.625-84.375 185.625-187.5v-37.5c1.875-103.125-80.625-187.5-183.75-187.5z m-116.25 375c-82.5 0-150-67.5-150-150v-142.5c0-24.375 20.625-45 45-45h217.5c82.5 0 150 67.5 150 150v37.5c0 82.5-65.625 150-148.125 150H453.875zM457.625 325.875c-9.375 0-18.75 7.5-18.75 18.75V421.5c0 9.375 7.5 18.75 18.75 18.75s18.75-7.5 18.75-18.75v-76.875c0-9.375-7.5-18.75-18.75-18.75z m101.25-30c-9.375 0-18.75 7.5-18.75 18.75v108.75c0 9.375 7.5 18.75 18.75 18.75s18.75-7.5 18.75-18.75v-108.75c0-11.25-9.375-18.75-18.75-18.75z"  horiz-adv-x="1024" />

    
    <glyph glyph-name="tupian2" unicode="&#58988;" d="M512-66C264.5-66 62 136.5 62 384S264.5 834 512 834s450-202.5 450-450-202.5-450-450-450z m0 881.25C273.875 815.25 80.75 622.125 80.75 384S273.875-47.25 512-47.25 943.25 145.875 943.25 384 750.125 815.25 512 815.25zM323.919 203.813c-5.625 0-11.25 1.875-13.125 5.625-7.5 7.5-7.5 20.625 0 28.125l121.875 121.874c7.5 7.5 20.625 7.5 28.125 0l120-120c7.5-7.5 7.5-20.625 0-28.125s-20.625-7.5-28.125 0l-105 105-108.75-108.75c-5.625-3.75-11.25-3.75-15-3.75zM758.919 211.312c-5.625 0-11.25 1.875-15 5.625L607.044 353.812l-76.875-76.874c-7.5-7.5-20.625-7.5-28.125 0s-7.5 20.625 0 28.125l91.875 91.875c7.5 7.5 20.625 7.5 28.125 0l150-150c7.5-7.5 7.5-20.626 0-28.126-3.75-5.625-7.5-7.5-13.125-7.5z m-331.875 228.75c-35.625 0-65.625 30-65.625 65.625s30 65.625 65.625 65.625 65.625-30 65.625-65.625c1.875-37.5-28.125-65.625-65.625-65.624z m0 91.875c-15 0-26.25-11.25-26.25-26.25s11.25-26.25 26.25-26.25 26.25 11.25 26.25 26.25-11.25 26.25-26.25 26.25z"  horiz-adv-x="1024" />

    
    <glyph glyph-name="tianjia11" unicode="&#58978;" d="M512.02-65.998A449.976 449.976 0 1 0 830.217 65.78 447.115 447.115 0 0 0 512.02-65.998z m0 835.412a385.694 385.694 0 1 1 272.782-112.976A383.251 383.251 0 0 1 512.02 769.414zM737.008 416.28H544.161V609.994a32.141 32.141 0 0 1-64.282 0V416.28H287.032a32.334 32.334 0 0 1 0-64.572H479.88v-193.843a32.141 32.141 0 0 1 64.282 0V351.708h192.847a32.302 32.302 0 0 1 2.796 64.572h-2.796z"  horiz-adv-x="1024" />

    
    <glyph glyph-name="bianji1" unicode="&#58979;" d="M901.58 464.146v-416.391a55.694 55.694 0 0 0-55.76-55.728H175.622a55.694 55.694 0 0 0-55.595 55.728V717.987a55.694 55.694 0 0 0 55.595 55.594h416.624a29.03 29.03 0 1 1 0 58.027H175.622A113.755 113.755 0 0 1 62 717.987v-670.232a113.755 113.755 0 0 1 113.622-113.622H845.82a113.655 113.655 0 0 1 113.788 113.622V464.379a28.997 28.997 0 0 1-58.027-0.233zM599.145 430.25l352.03 351.863A29.164 29.164 0 1 1 910.18 823.11L558.15 471.112c-33.397-33.397 7.599-74.393 40.995-40.863z"  horiz-adv-x="1024" />

    
    <glyph glyph-name="shezhi1" unicode="&#58980;" d="M512-66A450.122 450.122 0 0 0 336.827 798.635a450.122 450.122 0 0 0 350.325-829.268A447.218 447.218 0 0 0 512-65.999z m2.925 310.91a93.6 93.6 0 0 1 181.37 0h52.384a20.455 20.455 0 0 1 20.455 20.454v12.477a20.455 20.455 0 0 1-20.455 20.455h-54.51a93.58 93.58 0 0 1-177.219-0.389 20.29 20.29 0 0 1-3.968 0.389H275.3a20.455 20.455 0 0 1-20.454-20.455v-12.661a20.455 20.455 0 0 1 20.454-20.455h239.605z m-192.6 214.2a93.6 93.6 0 0 1 180.86 0h245.453a20.455 20.455 0 0 1 20.455 20.454v12.661a20.455 20.455 0 0 1-20.455 20.455H501.65a93.58 93.58 0 0 1-177.954-0.328 19.923 19.923 0 0 1-3.662 0.328H275.3a20.455 20.455 0 0 1-20.454-20.455v-12.661a20.455 20.455 0 0 1 20.454-20.455h44.816c0.736 0 1.452 0 2.189 0.103zM605.62 221.161a46.82 46.82 0 1 0 46.8 46.82 46.861 46.861 0 0 0-46.8-46.82zM412.775 436.446a46.8 46.8 0 1 0 46.8 46.8 46.861 46.861 0 0 0-46.8-46.8z"  horiz-adv-x="1024" />

    
    <glyph glyph-name="shanchu1" unicode="&#58981;" d="M933.887 665.233H90.143a28.113 28.113 0 1 0 0 56.256h843.744a28.113 28.113 0 0 0 0-56.256zM400.995 176.73a28.113 28.113 0 0 0-28.113 28.113V429.987a28.113 28.113 0 0 0 56.256 0v-225.144a28.113 28.113 0 0 0-28.143-28.113z m222.102 0a28.113 28.113 0 0 0-28.113 28.113V429.987a28.113 28.113 0 0 0 56.256 0v-225.144a28.113 28.113 0 0 0-28.174-28.113zM766.58-66H257.42a84.49 84.49 0 0 0-84.369 84.368V693.376a28.113 28.113 0 0 0 28.113 28.113h621.885a28.113 28.113 0 0 0 28.113-28.113v-675.008A84.55 84.55 0 0 0 766.581-66zM229.277 665.233v-646.865a28.113 28.113 0 0 1 28.113-28.112H766.61a28.204 28.204 0 0 1 28.113 28.112V665.233zM624.527 665.263H399.382a56.347 56.347 0 0 0-56.103 56.165v56.316A56.347 56.347 0 0 0 399.534 834H624.68a56.317 56.317 0 0 0 56.255-56.256v-56.316a56.317 56.317 0 0 0-56.407-56.165z m0 56.256z m-225.145 56.256v-56.347h225.145v56.316z"  horiz-adv-x="1024" />

    
    <glyph glyph-name="jiahao" unicode="&#58982;" d="M512 813.775a32.208 32.208 0 0 1-32.208-32.258V-13.77a32.208 32.208 0 1 1 64.466 0V781.517A32.258 32.258 0 0 1 512 813.775zM909.77 416.208H114.483a32.208 32.208 0 1 1 0-64.466H909.77a32.208 32.208 0 1 1 0 64.466z"  horiz-adv-x="1024" />

    
    <glyph glyph-name="cha" unicode="&#58983;" d="M512-66a447.238 447.238 0 0 0-175.152 35.367A448.567 448.567 0 0 0 193.81 65.81a448.486 448.486 0 0 0-96.443 143.038A447.136 447.136 0 0 0 62 384a447.176 447.176 0 0 0 35.366 175.172 448.465 448.465 0 0 0 96.443 143.039 448.506 448.506 0 0 0 143.038 96.443A447.238 447.238 0 0 0 512 833.999a447.258 447.258 0 0 0 175.172-35.366 448.588 448.588 0 0 0 143.039-96.443 448.629 448.629 0 0 0 96.443-143.038A447.258 447.258 0 0 0 961.999 384a447.217 447.217 0 0 0-35.366-175.152A448.65 448.65 0 0 0 830.19 65.81a448.588 448.588 0 0 0-143.038-96.443A447.258 447.258 0 0 0 512-66zM342.228 587.667a20.27 20.27 0 0 1-14.462-5.994l-13.52-13.52a20.27 20.27 0 0 1-5.993-14.44 20.311 20.311 0 0 1 5.993-14.483l155.27-155.25-155.25-155.25a20.311 20.311 0 0 1-5.993-14.46 20.311 20.311 0 0 1 5.993-14.462l13.5-13.5a20.332 20.332 0 0 1 14.462-5.993 20.455 20.455 0 0 1 14.481 5.993l155.23 155.23 155.25-155.23a20.332 20.332 0 0 1 14.46-5.973 20.311 20.311 0 0 1 14.462 5.973l13.5 13.5a20.311 20.311 0 0 1 5.993 14.461 20.311 20.311 0 0 1-5.993 14.462l-155.23 155.25 155.25 155.25a20.455 20.455 0 0 1 0 28.942l-13.5 13.5a20.455 20.455 0 0 1-14.46 5.973 20.332 20.332 0 0 1-14.462-5.973l-155.27-155.27-155.25 155.27a20.332 20.332 0 0 1-14.461 5.994z"  horiz-adv-x="1024" />

    
    <glyph glyph-name="shanchu" unicode="&#59239;" d="M393.84615399 541.53846201c-23.630769 0-39.38461499-15.75384599-39.384616-31.50769301v-354.461538c0-23.630769 15.75384599-31.507692 39.384616-31.50769301s31.507692 15.75384599 31.507692 31.50769301V510.030769c0 15.75384599-15.75384599 31.507692-31.507692 31.50769301zM598.64615399 541.53846201c-23.630769 0-31.507692-15.75384599-31.507692-31.50769301v-354.461538c0-23.630769 15.75384599-31.507692 31.507692-31.50769301 23.630769 0 39.38461499 15.75384599 39.38461501 31.50769301V510.030769c0 15.75384599-15.75384599 31.507692-39.38461501 31.50769301zM953.107692 754.21538501H708.923077v39.38461499C708.923077 856.61538501 661.66153801 896 598.64615399 896H393.84615399c-63.01538501 0-110.276923-47.26153801-110.27692299-102.4v-31.507692H39.38461499c-23.630769 0-39.38461499-15.75384599-39.38461499-39.384616s15.75384599-31.507692 39.38461501-31.507692h70.89230799v-677.41538501c0-63.01538501 47.26153801-102.4 110.27692299-102.4H787.692308c63.01538501 0 110.276923 47.26153801 110.276923 102.4V683.323077h70.89230701c23.630769 0 39.38461499 15.75384599 39.384616 31.507692s-31.507692 39.38461499-55.13846201 39.38461599z m-598.64615401 39.38461499c0 23.630769 15.75384599 31.507692 39.384616 31.507692h212.67692301c23.630769 0 39.38461499-15.75384599 39.384615-31.507692v-31.507692H354.46153799v31.507692z m464.73846201-787.692308c-7.876923-15.75384599-15.75384599-23.630769-39.38461499-23.630769H212.676923c-23.630769 0-39.38461499 15.75384599-39.384615 31.50769199V683.323077h645.907692v-677.415385z"  horiz-adv-x="1024" />

    
    <glyph glyph-name="bianji" unicode="&#59240;" d="M378.40625027 306.65624973l492.18749973 492.18750054 49.21874973-49.21875054-492.18749973-492.18749973-49.21874973 49.21874973zM863.56250027 32.43749973000001H160.43749973V735.56250027h421.875V805.875H160.43749973C118.24999973 805.875 90.125 770.71874973 90.125 735.56250027v-703.12500054c0-42.1875 35.15625027-70.31249973 70.31249973-70.31249973h703.12500054c42.1875 0 70.31249973 35.15625027 70.31249973 70.31249973V454.31249973h-70.31249973v-421.875z"  horiz-adv-x="1024" />

    
    <glyph glyph-name="duihao" unicode="&#59066;" d="M950.3241875 653.60625a38.8125 38.8125 0 0 1-56.25 0l-490.95-508.8375L129.9179375 427.875a38.8125 38.8125 0 0 1-56.25 0 42.35625 42.35625 0 0 1 0-58.3875l299.75625-310.725a38.98125 38.98125 0 0 1 28.125-12.09375 38.53125 38.53125 0 0 1 16.03125 3.7125 38.475 38.475 0 0 1 16.875 9.7875l516.15 535.05a42.35625 42.35625 0 0 1-0.28125 58.3875z"  horiz-adv-x="1024" />

    
    <glyph glyph-name="daipingjia" unicode="&#58973;" d="M680.75 507.75H343.25c-16.875 0-22.5-11.25-22.5-22.5v-185.625c0-11.25 5.625-16.875 16.875-16.875h56.25c28.125 0 50.625-11.25 67.5-33.75l39.375-45c5.625-5.625 11.25-5.625 16.875-5.625l5.625 5.625 39.375 45c11.25 22.5 33.75 33.75 61.875 33.75h56.25c11.25 0 16.875 5.625 16.875 16.875V485.25c0 11.25-11.25 22.5-16.875 22.5zM405.125 367.125c-16.875 0-28.125 11.25-28.125 28.125s11.25 28.125 28.125 28.125 28.125-11.25 28.125-28.125c5.625-16.875-11.25-28.125-28.125-28.125z m106.875 0c-16.875 0-28.125 11.25-28.125 28.125s11.25 28.125 28.125 28.125 28.125-11.25 28.125-28.125-16.875-28.125-28.125-28.125z m101.25 0c-16.875 0-28.125 11.25-28.125 28.125s11.25 28.125 28.125 28.125 28.125-11.25 28.125-28.125-11.25-28.125-28.125-28.125zM512 834C264.5 834 62 631.5 62 384s202.5-450 450-450 450 202.5 450 450-202.5 450-450 450z m213.75-528.75c0-28.125-22.5-50.625-50.625-50.625h-56.25c-16.875 0-33.75-11.25-45-22.5l-39.375-45c-5.625-11.25-22.5-16.875-33.75-16.875-11.25 0-28.125 5.625-33.75 16.875l-39.375 45c-11.25 11.25-28.125 16.875-45 22.5h-56.25c-16.875 0-39.375 22.5-39.375 50.625V485.25c0 28.125 22.5 50.625 50.625 50.625h337.5c28.125 0 50.625-22.5 50.625-50.625v-180z"  horiz-adv-x="1024" />

    
    <glyph glyph-name="daishouhuo" unicode="&#58974;" d="M354.5 237.75c0-11.25 5.625-16.875 16.875-16.875h281.25c11.25 0 16.875 5.625 16.875 16.875V445.875H354.5v-208.125z m61.875 118.125c5.625 5.625 16.875 5.625 22.5 0l50.625-50.625 90 90c5.625 5.625 16.875 5.625 22.5 0 5.625-5.625 5.625-16.875 0-22.5L500.75 271.5c-5.625-5.625-16.875-5.625-22.5 0L416.375 333.375c-5.625 5.625-5.625 16.875 0 22.5zM647 519c-5.625 11.25-16.875 16.875-28.125 16.875H399.5c-11.25 0-22.5-5.625-28.125-16.875l-11.25-45h303.75l-16.875 45zM512 834C264.5 834 62 631.5 62 384s202.5-450 450-450 450 202.5 450 450-202.5 450-450 450z m185.625-596.25c0-28.125-22.5-45-45-45h-281.25c-28.125 0-45 22.5-45 45V457.125v5.625L343.25 530.25c11.25 22.5 33.75 39.375 56.25 39.375h219.375c22.5 0 45-16.875 56.25-39.375l22.5-61.875v-230.625z"  horiz-adv-x="1024" />

    
    <glyph glyph-name="shouhou-tuikuan" unicode="&#58975;" d="M512 834C264.5 834 62 631.5 62 384s202.5-450 450-450 450 202.5 450 450-202.5 450-450 450z m213.75-483.75c0-5.625 0-5.625 0 0-11.25-61.875-45-112.5-95.625-140.625-39.375-22.5-78.75-39.375-123.75-39.375-16.875 0-28.125 0-45 5.625-56.25 11.25-101.25 39.375-135 84.375v-11.25c0-11.25-5.625-16.875-16.875-16.875-11.25 0-22.5 5.625-22.5 16.875V350.25c0 5.625 5.625 11.25 11.25 11.25 5.625 5.625 11.25 0 22.5 0s11.25-11.25 5.625-16.875v-5.625C343.25 271.5 399.5 220.875 467 204c50.625-11.25 95.625 0 140.625 28.125s67.5 67.5 78.75 118.125c0 11.25 5.625 16.875 16.875 16.875 5.625 0 5.625 0 11.25-5.625 11.25 0 11.25-5.625 11.25-11.25zM438.875 474c-5.625 5.625 0 16.875 5.625 22.5 5.625 0 11.25 0 16.875-5.625L512 429l45 56.25c5.625 5.625 11.25 11.25 22.5 5.625s5.625-16.875 5.625-16.875l-45-56.25h50.625c5.625 0 16.875-5.625 16.875-16.875 0-5.625-5.625-16.875-16.875-16.875H523.25v-22.5h67.5c5.625 0 16.875-5.625 16.875-11.25s-5.625-16.875-16.875-16.875H523.25v-50.625c0-5.625 0-5.625-5.625-11.25 0 0-5.625-5.625-11.25-5.625s-11.25 5.625-16.875 11.25V339H427.625c-5.625 0-16.875 5.625-16.875 11.25s5.625 16.875 11.25 16.875h67.5v22.5H427.625c-5.625 0-11.25 5.625-16.875 11.25 0 5.625 0 5.625 5.625 11.25s5.625 5.625 11.25 5.625h50.625l-39.375 56.25z m286.875 45v-95.625c0-11.25-5.625-16.875-16.875-16.875-5.625 0-11.25 0-16.875 5.625s-5.625 5.625-5.625 11.25v5.625C669.5 496.5 618.875 547.125 551.375 564c-50.625 11.25-95.625 0-140.625-28.125s-73.125-67.5-78.75-112.5c0-5.625-5.625-16.875-16.875-16.875-11.25 0-16.875 5.625-16.875 16.875v5.625c11.25 56.25 45 101.25 90 135 50.625 33.75 106.875 45 168.75 33.75 56.25-11.25 101.25-39.375 135-84.375v5.625c0 11.25 11.25 16.875 16.875 16.875 11.25 0 16.875-5.625 16.875-16.875z"  horiz-adv-x="1024" />

    
    <glyph glyph-name="daifahuo" unicode="&#58976;" d="M618.875 344.625zM630.125 541.5c-5.625 11.25-16.875 11.25-22.5 16.875H405.125c-11.25-5.625-16.875-5.625-22.5-16.875l-33.75-61.875s0-5.625-5.625-11.25h320.625s0 5.625-5.625 5.625l-28.125 67.5zM512 834C264.5 834 62 631.5 62 384s202.5-450 450-450 450 202.5 450 450-202.5 450-450 450z m185.625-596.25c0-22.5-16.875-39.375-39.375-39.375H348.875c-22.5 0-39.375 16.875-39.375 39.375v16.875c0 5.625 5.625 16.875 16.875 16.875 5.625 0 5.625 0 11.25-5.625 0 0 5.625-5.625 5.625-11.25v-16.875c0-5.625 5.625-11.25 11.25-11.25h309.375c5.625 0 11.25 5.625 11.25 11.25V440.25h-337.5v-11.25c0-5.625 0-5.625-5.625-11.25 0 0-5.625-5.625-11.25-5.625s-5.625 0-11.25 5.625 0 11.25 0 16.875V440.25c0 16.875 5.625 33.75 11.25 50.625L354.5 552.75c11.25 16.875 28.125 28.125 50.625 28.125h202.5c22.5 0 39.375-11.25 50.625-28.125l33.75-67.5c5.625-16.875 11.25-33.75 11.25-50.625v-196.875zM326.375 355.875H399.5c5.625 0 16.875-5.625 16.875-16.875 0-5.625 0-5.625-5.625-11.25H326.375c-11.25 0-16.875 5.625-16.875 11.25 0 11.25 5.625 16.875 16.875 16.875z m-16.875 33.75c0 5.625 5.625 16.875 16.875 16.875H455.75c5.625 0 5.625 0 11.25-5.625 0 0 5.625-5.625 5.625-11.25s-5.625-16.875-16.875-16.875H326.375c-11.25 5.625-16.875 11.25-16.875 16.875z m16.875-84.375h33.75c5.625 0 16.875-5.625 16.875-16.875 0-5.625-5.625-16.875-16.875-16.875h-33.75c-5.625 0-16.875 5.625-16.875 16.875 0 11.25 5.625 16.875 16.875 16.875z m230.625 67.5s-5.625 5.625-5.625 11.25 0 5.625 5.625 11.25c0 0 5.625 5.625 11.25 5.625s5.625 0 11.25-5.625l39.375-39.375v-11.25l-45-56.25s-5.625-5.625-11.25-5.625-5.625 0-11.25 5.625-5.625 16.875 0 22.5L568.25 327.75H506.375c-11.25 0-16.875 5.625-16.875 11.25s0 5.625 5.625 11.25c0 0 5.625 5.625 11.25 5.625H568.25l-11.25 16.875z"  horiz-adv-x="1024" />

    
    <glyph glyph-name="daifukuan" unicode="&#58977;" d="M438.875 524.625V384l16.875 11.25c0 5.625 11.25 11.25 22.5 11.25 16.875 0 28.125-5.625 39.375-16.875 16.875-22.5 16.875-50.625 0-73.125l-78.75-73.125c0-5.625 5.625-5.625 11.25-5.625h129.375V535.875H450.125c-11.25 0-11.25 0-11.25-11.25zM652.625 535.875h-39.375v-298.125h39.375c11.25 0 16.875 5.625 16.875 11.25V524.625c0 11.25-5.625 11.25-16.875 11.25zM512 834C264.5 834 62 631.5 62 384s202.5-450 450-450 450 202.5 450 450-202.5 450-450 450z m185.625-596.25c0-16.875-16.875-33.75-33.75-28.125h-225c-11.25 0-16.875 5.625-28.125 11.25v-5.625c-5.625-5.625-11.25-5.625-11.25-5.625h-5.625c-5.625 0-11.25 11.25-11.25 16.875 0 0 0 5.625 5.625 5.625l112.5 101.25c5.625 5.625 5.625 16.875 0 28.125s-16.875 11.25-22.5 16.875c-5.625 0-5.625 0-5.625-5.625L399.5 310.875c-5.625-5.625-16.875-5.625-22.5 0-5.625 5.625-5.625 16.875 0 22.5l28.125 22.5V445.875H399.5L337.625 367.125c-11.25-5.625-11.25-16.875-11.25-22.5v-118.125c0-11.25-5.625-16.875-16.875-16.875-11.25 0-16.875 5.625-16.875 16.875V355.875c0 11.25 5.625 22.5 16.875 28.125 5.625 5.625 67.5 73.125 101.25 106.875v45c0 16.875 16.875 33.75 33.75 28.125h219.375c16.875 0 33.75-11.25 33.75-28.125v-298.125z"  horiz-adv-x="1024" />

    
    <glyph glyph-name="zhuanjie" unicode="&#59238;" d="M896 0H339.2c-19.2 0-33.6-14.4-33.6-33.6 0-19.2 14.4-33.6 33.6-33.6H896c19.2 0 33.6 14.4 33.6 33.6 0 14.4-14.4 33.6-33.6 33.6zM953.6 681.6l-144 144c-14.4 14.4-33.6 14.4-48 0-14.4-14.4-14.4-33.6 0-48L848 691.2H353.6C185.6 691.2 51.2 556.8 51.2 388.8s134.4-302.4 302.4-302.4H896c19.2 0 33.6 14.4 33.6 33.6 0 19.2-14.4 33.6-33.6 33.6H353.6c-129.6 0-235.2 105.6-235.2 235.2S224 624 353.6 624H848l-86.4-86.4c-14.4-14.4-14.4-33.6 0-48 4.8-4.8 14.4-9.6 24-9.6s19.2 4.8 24 9.6l144 144c14.4 14.4 14.4 33.6 0 48z"  horiz-adv-x="1024" />

    
    <glyph glyph-name="liulanqi" unicode="&#58972;" d="M512 834a450 450 0 1 1 450-450A450.51923057 450.51923057 0 0 1 512 834zM121.98846113 384a388.17692315 388.17692315 0 0 0 89.10000001 247.84615372 54.41538428 54.41538428 0 0 0 12.80769258-26.58461486c4.70769258-24.54230742-12.49615371-105.12692315 9.38076943-122.81538514 33.36923057-27 84.98076943-4.29230742 111.56538427-20.76923057s93.91153887-93.46153887 120.08076943-77.81538428c43.99615371 26.27307685-31.43076943 130.05-34.61538427 158.12307686-4.81153886 41.53846114 21.46153887 90.34615372 69.23076856 72.69230742 30.04615371-11.11153887 36.31153886-51.19615371 64.38461571-52.82307686s14.95384629 86.53846114 14.85 100.69615371c-0.31153887 39.77307685 38.90769258 68.05384629 80.61923057 82.35a389.56153886 389.56153886 0 0 0 197.75769258-542.04230742c-3.25384629 34.92692315-11.76923057 73.8-33.02307685 85.70769169-41.26153886 23.08846114-87.19615372 1.00384628-120.49615372 38.07692315-13.84615371 15.26538428 3.46153886 83.52692315-38.07692314 99.9-80.61923057 31.88076943-145.93846114-33.88846113-165.77307686-86.71153799a154.73076943 154.73076943 0 0 1-7.23461571-75.46153886c0.79615372-84.70384628-42.99230742-84.73846114-26.37692315-118.69615372 18.20769258-37.21153886 83.31923057-23.98846114 70.65-101.87307685a51.92307685 51.92307685 0 0 0-15.81923057-29.97692315q-11.35384629-7.51153887-23.08846113-14.4a109.00384629 109.00384629 0 0 0-13.39615459-4.29230742A390.42692315 390.42692315 0 0 0 121.98846113 384z"  horiz-adv-x="1024" />

    
    <glyph glyph-name="fangkeshu" unicode="&#58943;" d="M169.91240908 234.07746211000006a411.20072842 411.20072842 0 0 0 198.75109571 162.39493388l4.00559854 1.49827677a238.19554424 238.19554424 0 0 0-97.47976817 155.23989433 276.3557543 276.3557543 0 0 0-3.60809649 40.48406983 238.95997119 238.95997119 0 0 0 42.80792872 136.64902235A248.19425244 248.19425244 0 0 0 431.31596504 820.0568458a240.85575088 240.85575088 0 0 0 264.00261006-71.30577744 246.42078135 246.42078135 0 0 0 56.23127138-138.60595635 238.65420058 238.65420058 0 0 0-33.63480088-140.16538828 244.92250371 244.92250371 0 0 0-66.41344336-71.91731953 392.12062295 392.12062295 0 0 0 90.44703721-47.18045215 425.54138467 425.54138467 0 0 0 95.27821787-92.80147324 401.23259648 401.23259648 0 0 0 78.64427901-244.00519102 381.66325752 381.66325752 0 0 0-3.0577087-42.80792871 40.45349268 40.45349268 0 0 0-10.82429032-26.14341358 36.96770391 36.96770391 0 0 0-52.28682715 0 35.34711768 35.34711768 0 0 0-10.82429034 26.14341358 378.94189658 378.94189658 0 0 1 0.39750205 91.97589199 321.05946182 321.05946182 0 0 1-46.29371659 128.72955586q-7.00215381 11.40525528-14.82988976 22.22954561a262.44317724 262.44317724 0 0 1-4.31136914 5.87080108c-2.56847607 3.05770958-5.13695127 6.39061172-7.76658164 9.50947558a368.42337685 368.42337685 0 0 1-37.94617089 38.61886728q-4.86175781 4.28079287-9.87640049 8.37812285l-2.35443604 1.89577969c1.2230833-0.97846699-0.7950041 0.70327354-2.32385888 1.86520254l-0.39750206 0.33634776-2.53789891 1.98751113 2.14039687-1.7123168q-10.91602178 8.16408369-22.4130085 15.5331624a323.19985869 323.19985869 0 0 1-134.20285488 49.71835108 376.74034628 376.74034628 0 0 1-88.67356612 0 320.41734346 320.41734346 0 0 1-128.60724726-46.32429375q-11.37467812-7.00215381-22.22954561-14.82988975l-5.87080195-4.31137001c-3.21059443-2.56847607-6.39061172-5.13695127-9.50947559-7.76658077a368.54568545 368.54568545 0 0 1-38.58828925-37.8238623q-4.25021573-4.86175781-8.37812286-9.87640138l-1.86520341-2.32385888c0.97846699 1.2230833-0.70327354-0.7950041-1.86520254-2.32385888l-0.30577061-0.39750206-1.98751113-2.53789893 1.71231768 2.14039688q-8.16408369-10.91602178-15.53316328-22.41300849a323.1387044 323.1387044 0 0 1-49.7183502-134.23343203 378.29977823 378.29977823 0 0 1 0.39750205-91.97589199 36.69250957 36.69250957 0 0 0-10.82429033-26.1434127 36.96770391 36.96770391 0 0 0-52.28682715 0 43.32773848 43.32773848 0 0 0-10.82429033 26.1434127 401.96644717 401.96644717 0 0 0 58.70801601 262.87125732z m603.50005811-13.57622842a8.98966494 8.98966494 0 0 1-1.65116338 2.10981884l1.68173965-2.07924257z m-96.53187833 395.66756514a162.88416739 162.88416739 0 0 1-27.73342264 71.55039463 153.19122891 153.19122891 0 0 1-4.95348839 7.00215381l1.22308331-1.43712334c-0.51981065 0.64211924-1.03962128 1.2230833-1.55943194 1.92635683l-0.30577061 0.45865635a35.10250136 35.10250136 0 0 1-2.62962948 3.05770957 213.64213974 213.64213974 0 0 1-11.52756388 12.53660713q-6.8186918 6.8186918-14.27950195 12.99526436l-0.67269638 0.64211923-0.73384981 0.51980977q-3.88329082 2.87424667-7.9194665 5.56503135a205.14170742 205.14170742 0 0 1-29.01766026 16.05297304 207.46556719 207.46556719 0 0 1-42.53273437 11.68044873 211.65462862 211.65462862 0 0 1-44.91774757 0 207.43499004 207.43499004 0 0 1-42.50215722-11.58871728 205.04997685 205.04997685 0 0 1-29.01766025-16.05297304q-3.54694307-2.38501318-7.00215381-4.95348927l1.40654619 1.22308331a35.46942627 35.46942627 0 0 0-1.92635684-1.55943106l-0.42807919-0.30577149a37.60982315 37.60982315 0 0 1-3.05770958-2.62962949 213.64213974 213.64213974 0 0 1-12.53660712-11.52756387q-6.8186918-6.84926894-12.99526436-14.27950195l-0.64211836-0.6726955a5.16752842 5.16752842 0 0 1-0.51981064-0.70327354 194.89838203 194.89838203 0 0 1-5.56503135-7.91946651 205.69209521 205.69209521 0 0 1-16.05297305-29.01766024 207.92422354 207.92422354 0 0 1-11.68044873-42.59388868 199.91302559 199.91302559 0 0 1 0-44.82601611 207.92422354 207.92422354 0 0 1 11.68044873-42.59388867 204.86651396 204.86651396 0 0 1 16.05297305-29.01766026q2.38501318-3.54694307 4.95348925-7.00215381l-1.22308329 1.43712334 1.55943105-1.92635683 0.30577148-0.42807921a37.97674805 37.97674805 0 0 1 2.6296295-3.05770868q5.50387617-6.51292031 11.52756386-12.53660801 6.84926894-6.8186918 14.27950196-12.99526347l0.70327265-0.64211925 0.70327354-0.51981064c2.59905323-1.92635683 5.22868271-3.79155938 7.91946651-5.56503047a204.86651396 204.86651396 0 0 1 29.01766024-16.05297305 207.46556719 207.46556719 0 0 1 42.53273439-11.68044961 209.97288809 209.97288809 0 0 1 44.91774755 0 207.43499004 207.43499004 0 0 1 42.53273438 11.68044961 205.08055401 205.08055401 0 0 1 29.01765937 16.05297305q3.54694307 2.38501318 7.00215469 4.95348838l-1.43712334-1.2230833c0.64211924 0.51981065 1.2230833 1.03962128 1.92635683 1.55943193l0.4280792 0.30577061a38.25194151 38.25194151 0 0 1 3.05770869 2.62962949c4.34194717 3.69982793 8.53100859 7.52196445 12.53660802 11.52756387q6.8186918 6.8186918 12.99526347 14.27950195l0.64211924 0.70327266 0.51981065 0.70327353q2.90482383 3.88329082 5.56503047 7.9194665a204.86651396 204.86651396 0 0 1 16.05297304 29.01766026 207.25152715 207.25152715 0 0 1 11.68044961 42.56331152 211.50174287 211.50174287 0 0 1 0 44.88717041zM310.13895166 280.46291016a8.89793349 8.89793349 0 0 1-2.10981973-1.62058623l2.17097315 1.68174052z"  horiz-adv-x="1024" />

    
    <glyph glyph-name="fangwenliang" unicode="&#58946;" d="M954.72237237 392.49056572C862.53908398 637.50404326 590.84097031 761.22371924 345.82749365 671.46630703 217.25606445 622.94878711 117.79514844 523.48787021 69.27762763 394.9164419l-4.85175146-12.12937998 4.85175146-12.12937999c92.18328838-245.01347666 363.88140205-368.73315352 608.89487872-276.54986513 128.57142832 48.51751992 228.03234521 147.97843682 276.54986602 276.54986513l4.85175146 12.12937998-4.85175146 9.70350381z m-441.50943429-266.84636044c-167.38544443 0-317.78975742 101.88679219-380.86253349 254.71698047C217.25606445 591.41239863 457.41778965 693.2991916999999 668.46900253 605.96765479c101.88679219-41.23989229 184.36657675-123.71967685 225.60646905-225.60646904-65.49865224-152.83018828-215.90296523-252.29110518-380.8625335-254.71698047zM513.21293808 547.74663105c-92.18328838 0-164.95956914-75.20215606-164.95956913-164.95956914 0-92.18328838 75.20215606-164.95956914 164.95956913-164.95956826s164.95956914 75.20215606 164.95956827 164.95956826c0 89.75741221-75.20215606 164.95956914-164.95956826 164.95956914z m0-269.2722375c-55.79514844 0-101.88679219 46.09164463-101.88679218 101.88679219s46.09164463 101.88679219 101.88679219 101.88679307 101.88679219-46.09164463 101.88679219-101.88679306-46.09164463-101.88679219-101.88679219-101.88679219z"  horiz-adv-x="1024" />

    
    <glyph glyph-name="chengjiaoyonghushu" unicode="&#58941;" d="M714.77777744 261.77777812c11.11111084 13.88888877 8.33333291 33.33333339-2.77777705 41.66666631-33.33333339 27.77777754-69.44444472 47.22222217-108.33333398 63.88888887 50.0000001 30.55555547 88.88888847 80.55555557 108.33333398 136.11111152 24.99999961 77.77777763 11.11111084 163.88888906-41.66666719 230.55555499C620.3333331 797.88888867 545.33333339 834 464.77777783 831.22222207 384.22222227 831.22222207 309.22222256 792.33333369 262.00000039 725.6666669c-36.11111133-50.0000001-50.0000001-111.11111104-44.44444511-172.22222286 8.33333291-77.77777763 52.77777803-147.22222237 119.44444482-186.11111074-5.55555586-2.77777793-11.11111084-5.55555586-19.44444463-8.33333291-47.22222217-19.44444463-86.11111143-50.0000001-122.22222188-86.11111143C159.22222227 236.77777762999995 131.44444473 195.11111132999997 114.77777802 147.88888915999996c-16.6666667-50.0000001-27.77777754-100.0000002-27.77777841-155.55555615v-22.22222168c0-16.6666667 13.88888877-27.77777754 30.55555635-27.77777842h2.77777705c16.6666667 0 30.55555547 16.6666667 27.77777842 33.3333334v19.44444463c0 44.44444424 8.33333291 88.88888847 24.99999961 130.55555566 16.6666667 38.88888926 38.88888926 74.99999971 69.44444472 108.33333311 58.333333 61.11111094 141.66666651 97.22222227 227.77777793 97.22222226 36.11111133 0 72.22222266-5.55555586 108.33333311-19.44444463 33.33333339-13.88888877 63.88888886-30.55555547 91.6666664-52.77777714 13.88888877-11.11111084 33.33333339-11.11111084 44.44444424 2.77777792z m-249.99999961 130.55555479c-50.0000001 2.77777793-94.44444434 22.22222256-130.55555566 55.55555596-36.11111133 36.11111133-55.55555596 86.11111143-55.55555508 136.11111152 0 100.0000002 86.11111143 186.11111074 188.88888867 188.88888867h2.77777793c50.0000001 0 97.22222227-19.44444463 133.33333272-55.55555596 36.11111133-36.11111133 58.333333-83.33333349 58.33333388-136.11111063 0-50.0000001-19.44444463-100.0000002-55.55555596-136.11111153-36.11111133-36.11111133-83.33333349-55.55555596-133.33333359-55.55555508l-8.33333291 2.77777705z m247.22222256-130.55555478zM928.6666666 175.66666669999995c-5.55555586 5.55555586-11.11111084 8.33333291-19.44444463 8.33333291-8.33333291 0-13.88888877-2.77777793-19.44444463-8.33333291l-180.55555487-163.88888907-63.88888888 72.22222266c-11.11111084 11.11111084-27.77777754 11.11111084-38.88888925 2.77777705-11.11111084-11.11111084-13.88888877-27.77777754-2.77777793-41.6666663l80.55555556-88.88888848c5.55555586-5.55555586 13.88888877-11.11111084 22.22222256-11.11111172 8.33333291 0 13.88888877 2.77777793 19.44444463 8.33333379l199.99999951 180.55555576c13.88888877 13.88888877 13.88888877 30.55555547 2.77777794 41.66666631z"  horiz-adv-x="1024" />

    
    <glyph glyph-name="chongzhijianshu" unicode="&#58942;" d="M962.44623916 387.76044609c0 17.54874668-15.04178261 32.5905293-35.09749249 32.59052842-17.54874668 0-32.5905293-15.04178261-35.09749335-32.59052842v-25.06963799c-10.02785537-152.92479112-107.79944326-290.80779961-253.20334219-338.44011152-305.84958223-100.27855195-586.62952646 180.50139317-486.35097539 486.35097451 50.13927597 152.92479112 200.55710303 253.20334219 361.00278545 253.20334307 20.05571075 0 35.09749336 15.04178261 35.09749336 35.09749248S533.75543193 834 516.20668526 834C310.63565498 834 130.13426182 701.13091963 77.48802266 505.58774385-0.22785537 207.25905292000004 225.39888565-63.49303594000003 511.192758-63.49303594000003c248.18941494 0 448.74651797 203.06406709 448.74651798 448.74651797l2.50696318 2.50696406zM513.69972119 445.4206125v97.77158789c0 20.05571075-15.04178261 35.09749336-35.09749248 35.09749336-20.05571075 0-35.09749336-15.04178261-35.09749336-35.09749336v-183.00835635c0-20.05571075 15.04178261-35.09749336 35.09749336-35.09749336H664.11754912c20.05571075 0 35.09749336 15.04178261 35.09749249 35.09749336 0 20.05571075-15.04178261 35.09749336-35.09749249 35.09749336h-100.27855195s-2.50696406 0 0 2.50696319l275.76601699 275.76601699c12.53481855 12.53481855 12.53481855 35.09749336 0 47.63231192s-35.09749336 12.53481855-50.13927598 0l-275.76601699-275.766017c0-2.50696406 0-2.50696406 0 0z"  horiz-adv-x="1024" />

    
    <glyph glyph-name="chengbenjine" unicode="&#58944;" d="M841.32960927 542.37988799l-15.0837996 15.08379873c-10.05586612 10.05586612-20.11173222 17.59776504-30.16759746 25.13966484l-5.02793262 5.0279335 5.02793262 5.02793262c20.11173222 20.11173222 32.68156465 47.76536338 32.68156464 77.93296084 0 70.39106104-67.87709473 128.21229053-155.86592167 128.21229052h-12.56983242c-12.56983242 0-25.13966484-2.51396631-37.70949727-7.54189892h-2.51396719l-2.5139663 2.51396631-10.05586612 7.54189893-7.54189893 5.02793349C572.3351958 821.43016758 542.16759746 834 512 834h-5.02793262c-30.16759746-2.51396631-60.3351958-15.08379873-82.96089433-32.68156465l-7.54189893-7.54189892-10.05586611-7.54189981c-17.59776504 7.54189981-35.19553096 10.05586612-55.30726319 10.05586611-87.98882695 0-155.86592168-55.30726231-155.86592167-128.21229052V658.02234609c2.51396631-25.13966484 15.08379873-47.76536338 32.68156464-65.36312841l5.02793262-5.02793262-5.02793262-5.0279335c-15.08379873-12.56983242-32.68156465-25.13966484-45.25139706-40.22346357-80.44692715-75.41899453-120.67039073-158.37988799-120.67039073-241.34078145C62 79.81005557000003 225.40782148-58.45810019999999 489.37430146-66h27.65363116c130.72625683 0 241.34078232 32.68156465 321.78770947 95.53072588 80.44692715 65.36312842 123.18435791 158.37988799 123.18435791 268.99441347-2.51396631 87.98882695-45.25139707 168.43575411-120.67039072 243.85474864z m-537.98882695 17.59776592c12.56983242 10.05586612 17.59776504 27.65363115 7.54189893 42.73742987-2.51396631 5.02793262-7.54189981 7.54189981-12.56983242 10.05586612-22.62569854 7.54189981-40.22346357 30.16759746-42.73742989 52.79329599C255.57541894 703.27374316 300.82681602 733.44134063 353.62011201 733.44134063h5.02793262c10.05586612 0 17.59776504-2.51396631 27.65363115-5.02793263l10.05586612-5.02793349c17.59776504-10.05586612 40.22346357-5.02793262 50.27932968 12.56983242v2.51396719l12.56983243 10.05586523 5.02793261 5.02793351c12.56983242 10.05586612 25.13966484 15.08379873 40.22346358 17.59776503l10.05586611 2.51396631c15.08379873 0 27.65363115-5.02793262 40.22346358-12.56983243l10.0558661-12.56983242 5.02793263-2.5139663 10.05586611-12.56983242c5.02793262-7.54189981 15.08379873-12.56983242 22.62569853-15.08379873 10.05586612-2.51396631 17.59776504 0 25.13966484 5.02793261h2.51396632c2.51396631 0 5.02793262 2.51396631 7.5418998 2.51396719 10.05586612 5.02793262 20.11173222 7.54189981 30.16759746 7.54189892 52.79329599 0 95.53072588-30.16759746 95.53072676-65.36312841-2.51396631-25.13966484-17.59776504-45.25139707-42.73743076-52.79329599-15.08379873-7.54189981-22.62569854-25.13966484-15.08379873-40.22346359 2.51396631-5.02793262 7.54189981-10.05586612 12.56983242-12.56983242l12.56983242-7.5418998c25.13966484-15.08379873 47.76536338-32.68156465 67.87709473-55.30726231 65.36312842-62.84916211 100.55865937-128.21229053 103.07262568-198.60335156 0-90.50279326-35.19553096-165.92178779-100.55865938-218.71508378-62.84916211-52.79329599-155.86592168-80.44692715-266.48044628-82.96089434h-27.65363115c-236.31284883 0-384.63687158 115.6424581-384.63687159 304.18994443 0 67.87709473 32.68156465 135.75419033 100.55865938 196.08938525 20.11173222 20.11173222 42.73742988 37.70949727 67.87709472 55.30726231l12.56983242 5.0279335zM351.10614482 255.78770946999998c-15.08379873 0-27.65363115-12.56983242-27.65363115-27.65363115s12.56983242-27.65363115 27.65363115-27.65363115h130.72625771v-87.98882696c0-15.08379873 12.56983242-27.65363115 27.65363116-27.65363115 7.54189981 0 15.08379873 2.51396631 20.11173134 10.05586612 5.02793262 5.02793262 7.54189981 12.56983242 7.54189981 20.11173135v87.98882694h133.24022315c7.54189981 0 15.08379873 2.51396631 20.11173222 7.54189981 5.02793262 5.02793262 7.54189981 12.56983242 7.54189893 20.11173135 0 15.08379873-12.56983242 27.65363115-27.65363115 27.65363115H539.65363115v52.79329599h133.24022403c7.54189981 0 15.08379873 2.51396631 20.11173135 7.54189981 5.02793262 5.02793262 7.54189981 12.56983242 7.5418998 20.11173134 0 15.08379873-12.56983242 27.65363115-27.65363115 27.65363204h-113.1284918l105.58659199 123.18435704c10.05586612 12.56983242 7.54189981 30.16759746-5.02793261 40.22346357-12.56983242 10.05586612-30.16759746 7.54189981-40.22346446-2.51396632l-110.61452461-128.21229052-110.61452549 128.21229053c-5.02793262 5.02793262-12.56983242 7.54189981-17.59776503 10.05586611-7.54189981 0-15.08379873-2.51396631-20.11173223-7.5418998-5.02793262-5.02793262-10.05586612-12.56983242-10.05586612-20.11173135 0-7.54189981 2.51396631-15.08379873 5.02793351-20.11173223l105.58659198-123.18435702h-113.12849179c-15.08379873 0-27.65363115-12.56983242-27.65363115-27.65363204s12.56983242-27.65363115 27.65363115-27.65363115h130.72625684V255.78770946999998h-128.21229054z"  horiz-adv-x="1024" />

    
    <glyph glyph-name="fufeihuiyuanshu" unicode="&#58945;" d="M1020.23529453 468.70588271L837.58823545 789C821.70588271 815.47058818 792.58823545 834 760.82352911 834H334.64705908C302.88235273 834 273.76470547 818.11764727 257.88235273 789L75.23529453 468.70588271c-18.52941182-34.41176455-13.23529453-76.76470547 13.23529365-105.88235361L485.52941182-39.52941181999995c15.88235273-15.88235273 39.70588271-26.47058818 63.52941181-26.47058818 23.82352911 0 45 10.58823545 63.52941182 26.47058818l394.41176455 402.35294092c26.47058818 29.11764727 31.76470547 71.47058818 13.23529453 105.88235361z m-63.52941182-55.58823544l-397.05882363-402.3529418c-7.94117637-7.94117637-18.52941182-7.94117637-26.47058818 0L138.76470547 413.11764727c-5.29411729 5.29411729-7.94117637 15.88235273-2.6470582 21.17647002L318.76470547 754.58823545c2.64705908 5.29411729 10.58823545 10.58823545 15.88235361 10.58823545h426.17647002c7.94117637 0 13.23529453-2.64705908 15.88235361-10.58823545l182.64705821-320.29411816c2.64705908-5.29411729 2.64705908-15.88235273-2.64705821-21.17647002zM670.8235291 423.70588271l-124.41176455-124.41176542-124.41176455 124.41176542c-13.23529453 13.23529453-37.05882364 13.23529453-47.64705908 0-5.29411729-5.29411729-10.58823545-15.88235273-10.58823545-23.82352998 0-7.94117637 2.64705908-18.52941182 10.58823545-23.82352909l148.23529453-148.23529454c5.29411729-5.29411729 15.88235273-10.58823545 23.8235291-10.58823457 7.94117637 0 18.52941182 2.64705908 23.82352998 10.58823458l148.23529365 148.23529452c13.23529453 13.23529453 13.23529453 34.41176455 0 47.64705908-10.58823545 13.23529453-34.41176455 13.23529453-47.64705907 0z"  horiz-adv-x="1105" />

    
    <glyph glyph-name="chongzhiyonghushu" unicode="&#58947;" d="M726.61538427 263.53846114c11.07692315 11.07692315 11.07692315 30.46153887-2.76923055 41.53846201-33.23076943 27.69230742-69.23076943 49.84615371-108 63.69230742 16.61538428 11.07692315 33.23076943 22.15384628 44.30769257 36 49.84615371 47.07692315 74.76923057 110.76923057 74.76923056 177.23076943s-27.69230742 130.15384628-74.76923056 177.23076943c-96.92307685 96.92307685-257.53846114 96.92307685-354.46153887 0-49.84615371-47.07692315-74.76923057-110.76923057-74.76923057-177.23076943s27.69230742-130.15384628 74.76923057-177.23076943c13.84615371-13.84615371 30.46153887-24.92307685 47.07692315-36-5.53846114-2.76923057-13.84615371-5.53846114-19.38461484-8.30769171-47.07692315-22.15384628-85.84615372-49.84615371-121.8461546-85.84615458C178.30769258 238.61538427000005 150.61538427 197.07692314999997 131.23076943 150c-16.61538428-49.84615371-27.69230742-102.46153887-27.6923083-155.07692315v-22.15384628c0-13.84615371 13.84615371-27.69230742 30.46153887-27.69230742 19.38461572 0 30.46153887 16.61538428 30.46153886 33.23076943v19.38461484c0 44.30769258 8.30769258 88.61538428 24.92307686 130.15384629s38.76923057 77.53846113 69.23076855 108c58.15384629 60.92307685 141.23076943 96.92307685 227.07692315 96.92307686 38.76923057 0 74.76923057-5.53846114 108-19.38461484 33.23076943-11.07692315 63.69230742-30.46153887 91.38461573-52.61538516 11.07692315-11.07692315 30.46153887-11.07692315 41.53846113 2.76923056zM350 717.69230742c36 36 85.84615372 55.38461573 135.69230742 55.38461573 105.23076943 0 191.07692315-85.84615372 185.53846201-191.07692315 0-52.61538428-19.38461572-99.69230742-55.38461571-135.69230742-33.23076943-36-83.07692315-55.38461573-132.92307687-55.38461573h-5.53846113c-47.07692315 0-94.15384628 22.15384628-127.38461572 55.38461573-36 36-55.38461573 85.84615372-55.38461573 135.69230742 0 52.61538428 19.38461572 99.69230742 55.38461573 135.69230742z m-83.07692315-22.15384628c8.30769258 13.84615371 16.61538428 27.69230742 24.92307687 38.76923144-8.30769258-11.07692315-16.61538428-24.92307685-24.92307687-38.76923145z m27.69230742 41.53846201c2.76923057 5.53846114 8.30769258 11.07692315 11.07692315 13.8461537-2.76923057-2.76923057-8.30769258-8.30769258-11.07692315-13.8461537z m-44.30769169-83.07692315c0 2.76923057 2.76923057 5.53846114 2.76923057 5.53846114-2.76923057 0-2.76923057-2.76923057-2.76923057-5.53846114z m5.53846114 22.15384629c2.76923057 5.53846114 8.30769258 13.84615371 11.07692313 19.38461485-2.76923057-5.53846114-8.30769258-13.84615371-11.07692313-19.38461485z m335.07692313-360.00000001c-33.23076943 13.84615371-72 19.38461572-105.23076943 19.38461486 36 0 74.76923057-5.53846114 108-19.38461485s66.46153886-30.46153887 94.1538463-52.61538515c5.53846114-5.53846114 11.07692315-8.30769258 16.61538515-8.30769171-8.30769258 0-13.84615371 0-19.38461572 5.53846114-27.69230742 24.92307685-60.92307685 41.53846114-94.1538463 55.38461572zM895.53846114 111.23076943000001H795.84615371v94.15384629c0 13.84615371-11.07692315 27.69230742-27.69230742 27.69230743-13.84615371 0-27.69230742-11.07692315-27.69230742-27.69230743v-94.15384629h-96.92307773c-13.84615371 0-27.69230742-13.84615371-27.69230742-27.6923083s11.07692315-27.69230742 27.69230742-27.69230742H740.46153887v-94.15384629c0-5.53846114 2.76923057-13.84615371 8.3076917-19.38461484s11.07692315-8.30769258 19.38461572-8.30769258c16.61538428 0 27.69230742 13.84615371 27.69230743 27.69230742v94.15384629h94.15384628c13.84615371 0 27.69230742 11.07692315 27.69230742 27.69230742 0 13.84615371-8.30769258 24.92307685-22.15384628 27.6923083z"  horiz-adv-x="1024" />

    
    <glyph glyph-name="goumaihuiyuanjine" unicode="&#58948;" d="M1019.55813945 470.33720918l-183.13953486 319.18604678C820.72093027 815.68604678 791.94186055 834 760.54651192 834H334.09302295C302.69767432 834 273.91860459 815.68604678 258.22093027 789.52325596l-183.13953486-319.18604678c-18.31395323-34.01162753-13.08139541-78.48837246 13.08139541-107.26744131l395.05813946-402.90697705c15.69767432-15.69767432 39.24418623-26.16279082 62.79069726-26.16279082 23.54651191 0 47.09302295 10.46511651 62.79069814 26.16279082L1003.86046513 363.06976786999996c28.77906972 28.77906972 34.01162753 73.25581377 15.69767432 107.26744131z m-62.79069726-57.55813946L561.70930273 9.872092680000037c-2.61627891-2.61627891-7.8488376-5.23255781-13.08139541-5.23255781s-10.46511651 2.61627891-13.0813954 5.23255781L137.87209268 412.77906972c-5.23255781 5.23255781-7.8488376 15.69767432-2.61627891 23.54651192L318.39534864 755.5116275400001c2.61627891 5.23255781 10.46511651 10.46511651 15.69767431 10.4651165h426.45348897c7.8488376 0 13.08139541-2.61627891 15.69767431-10.46511651l183.13953486-319.18604589c5.23255781-7.8488376 2.61627891-18.31395323-2.6162789-23.54651191zM687.29069727 580.22093027c5.23255781 5.23255781 7.8488376 13.08139541 10.4651165 20.93023213 0 7.8488376-2.61627891 15.69767432-7.84883672 20.93023301s-13.08139541 7.8488376-20.93023301 10.4651165c-7.8488376 0-15.69767432-2.61627891-20.93023212-7.84883759l-96.80232569-96.80232569L454.44186055 624.69767432c-5.23255781 5.23255781-13.08139541 7.8488376-20.93023301 10.4651165-7.8488376 0-15.69767432-2.61627891-20.93023213-7.84883759-13.08139541-10.46511651-13.08139541-28.77906972-2.6162789-41.86046515l109.88372109-109.88372021v-7.8488376h-99.41860547c-15.69767432 0-28.77906972-13.08139541-28.77906973-28.77906972s13.08139541-28.77906972 28.77906973-28.77906973h99.41860547V363.06976786999996h-99.41860547c-15.69767432 0-28.77906972-13.08139541-28.77906973-28.7790706 0-15.69767432 13.08139541-28.77906972 28.77906973-28.77906973h99.41860547v-52.32558076c0-15.69767432 13.08139541-28.77906972 28.77906972-28.77906973 15.69767432 0 28.77906972 13.08139541 28.77906973 28.77906973v52.32558076H663.74418623c15.69767432 0 28.77906972 13.08139541 28.77906973 28.77906973s-10.46511651 28.77906972-26.16279083 28.7790706h-86.33720917v39.24418535h86.33720917c15.69767432 0 28.77906972 13.08139541 28.77906974 28.77906973 0 15.69767432-13.08139541 28.77906972-28.77906974 28.77906973h-86.33720917v10.46511649l107.26744131 109.8837211z"  horiz-adv-x="1104" />

    
    <glyph glyph-name="fangke-zhifuzhuanhuashuai" unicode="&#58949;" d="M120.21950234 468.34762119a42.59067364 42.59067364 0 0 0-5.20018857 0.33914267 36.34479492 36.34479492 0 0 0-31.08808301 35.92086681l-0.45219024 224.56900634a36.26000948 36.26000948 0 1 0 72.52001895 0v-73.48092363A447.52708388 447.52708388 0 0 0 511.61846592 834h0.33914267a446.9901082 446.9901082 0 0 0 426.52849746-318.65284951 36.28827158 36.28827158 0 0 0-69.58078154-20.63118252 373.73528057 373.73528057 0 0 1-356.83466836 266.73575098h-0.22609511a374.3570417 374.3570417 0 0 1-356.94771505-267.07489366 36.31653281 36.31653281 0 0 0-34.67734365-26.0292041z m391.96420138-534.14978818A446.9901082 446.9901082 0 0 0 85.5704208 252.70937373000004a36.28827158 36.28827158 0 1 0 69.58078242 20.63118252 373.96137568 373.96137568 0 0 1 356.94771504-266.73575185h0.22609512a374.3570417 374.3570417 0 0 1 356.83466836 267.04663242 36.74046182 36.74046182 0 0 0 39.87753134 25.71832266 36.34479492 36.34479492 0 0 0 31.08808301-35.9208668l0.22609512-224.59726758a36.26000948 36.26000948 0 1 0-72.52001894 0v73.48092275a447.07489365 447.07489365 0 0 0-355.47809678-178.36080996z m0 0"  horiz-adv-x="1024" />

    
    <glyph glyph-name="jingzengyonghu" unicode="&#58950;" d="M656 258c13.84615371-11.07692315 30.46153887-8.30769258 41.53846114 2.76923057 11.07692315 13.84615371 8.30769258 33.23076943-2.76923057 41.53846201-33.23076943 27.69230742-69.23076943 47.07692315-108 63.69230742 16.61538428 11.07692315 33.23076943 22.15384628 47.07692315 36 47.07692315 47.07692315 74.76923057 110.76923057 74.76923056 177.23076943 0 66.46153886-24.92307685 130.15384628-74.76923056 177.23076943-96.92307685 96.92307685-257.53846114 96.92307685-354.461538 1e-8-47.07692315-47.07692315-74.76923057-110.76923057-74.76923144-177.23076944 0-66.46153886 24.92307685-130.15384628 74.76923145-177.23076943 13.84615371-13.84615371 30.46153887-24.92307685 47.07692314-36-5.53846114-2.76923057-11.07692315-5.53846114-19.38461572-8.30769258-47.07692315-19.38461572-85.84615372-49.84615371-121.84615372-85.84615371-36-36-63.69230742-77.53846113-80.30769258-124.61538428C85.53846114 100.15384629000005 74.46153887 50.30769257999998 74.46153887-2.30769257999998v-22.15384628c0-16.61538428 13.84615371-27.69230742 30.46153798-27.69230742h2.76923057c16.61538428 0 30.46153887 16.61538428 27.6923083 33.23076943v19.38461572c0 44.30769258 8.30769258 88.61538428 24.92307686 130.1538454 16.61538428 38.76923057 38.76923057 74.76923057 69.23076856 108.00000001 58.15384629 60.92307685 141.23076943 96.92307685 227.07692313 96.92307685 36 0 72-5.53846114 108-19.38461485 33.23076943-16.61538428 63.69230742-33.23076943 91.38461573-58.15384628z m-204.92307685 135.69230742c-49.84615371 2.76923057-94.15384628 22.15384628-127.38461573 55.38461573-36 36-55.38461573 83.07692315-55.38461484 135.69230742 0 49.84615371 19.38461572 99.69230742 55.38461484 135.6923083 36 36 83.07692315 55.38461573 135.6923083 55.38461484 105.23076943 0 191.07692315-85.84615372 191.07692314-191.07692314 0-49.84615371-19.38461572-99.69230742-55.38461571-135.69230742-36-36-83.07692315-55.38461573-132.92307686-55.38461573h-11.07692314z m246.46153798-130.15384628zM921.84615372 213.69230742000002h-116.30769259c-13.84615371 0-24.92307685-11.07692315-24.92307686-27.69230742 0-13.84615371 11.07692315-24.92307685 24.92307686-24.92307685h55.38461572l-113.53846112-113.53846201-80.30769258 80.30769258c-11.07692315 11.07692315-27.69230742 11.07692315-36 0l-146.76923057-146.76923057c-8.30769258-11.07692315-8.30769258-24.92307685 0-33.23076943 5.53846114-5.53846114 11.07692315-8.30769258 16.61538427-8.30769258h2.76923057c5.53846114 0 11.07692315 2.76923057 16.61538516 5.53846201l127.38461484 127.38461572 80.30769258-80.30769258c11.07692315-8.30769258 27.69230742-8.30769258 36 0l132.92307685 132.92307686v-55.38461573c0-13.84615371 11.07692315-24.92307685 24.92307687-24.92307685h2.76923055c5.53846114 0 11.07692315 2.76923057 16.61538516 8.30769258 5.53846114 5.53846114 8.30769258 11.07692315 8.30769171 19.38461572v116.3076917c-2.76923057 13.84615371-13.84615371 24.92307685-27.69230742 24.92307685z"  horiz-adv-x="1024" />

    
    <glyph glyph-name="kedanjia" unicode="&#58951;" d="M757.39295849 275.56626503999996c10.84337315 13.55421709 8.13253008 32.53012031-2.71084306 40.66265039-32.53012031 27.1084333-67.77108457 46.0843374-105.72289189 62.34939756 16.26506016 10.84337315 32.53012031 21.68674717 46.0843374 35.24096425 46.0843374 46.0843374 73.1927707 108.43373496 73.19277158 173.49397559 0 65.06024062-24.39759023 127.40963818-73.19277158 173.49397647C600.16404307 855.68674717 442.93512763 855.68674717 348.05560977 760.8072293c-46.0843374-46.0843374-73.1927707-108.43373496-73.19277159-173.49397647 0-65.06024062 24.39759023-127.40963818 73.19277159-173.49397559 13.55421709-13.55421709 29.81927724-24.39759023 46.0843374-35.24096425-5.42168701-2.71084307-10.84337315-5.42168701-18.9759041-8.13253008-46.0843374-18.97590323-84.03614472-48.79518047-119.2771081-84.03614473-35.24096425-35.24096425-62.34939756-75.90361465-78.61445773-121.98795117C155.58573008 115.62650567000003 144.74235693 66.83132519000003 144.74235693 12.61445771000001v-21.68674716c0-16.26506016 13.55421709-27.1084333 29.81927637-27.10843331h2.71084394c16.26506016 0 29.81927724 16.26506016 27.10843331 32.53012032v18.97590322c0 43.37349434 8.13253008 86.74698779 24.39759023 127.40963906 16.26506016 37.95180732 37.95180732 73.1927707 67.77108458 105.7228919 56.92771055 59.6385545 138.25301221 94.87951787 222.28915693 94.87951787 35.24096425 0 70.48192763-5.42168701 105.72289101-18.97590411 32.53012031-13.55421709 62.34939756-29.81927724 89.45783174-51.50602352 13.55421709-10.84337315 32.53012031-10.84337315 43.37349345 2.71084305z m-243.97590322 127.40963818c-48.79518047 2.71084307-92.16867481 21.68674717-124.69879511 54.21686748-35.24096425 35.24096425-54.21686748 81.32530078-54.21686748 132.83132608 0 48.79518047 18.97590323 97.59036182 54.21686748 132.8313252 35.24096425 35.24096425 81.32530078 54.21686748 132.83132519 54.21686747 103.01204795 0 187.04819268-84.03614472 187.04819268-187.04819267 0-48.79518047-18.97590323-97.59036182-54.21686748-132.83132608-35.24096425-35.24096425-81.32530078-54.21686748-130.12048213-54.21686748h-10.84337315z m241.26506016-127.40963818zM849.5616333 58.69879512c5.42168701 0 13.55421709 2.71084307 16.26506016 8.13253008s8.13253008 10.84337315 8.13253008 16.26506016c0 13.55421709-10.84337315 24.39759023-24.39759024 24.39759023h-54.21686747v2.71084394l73.19277157 73.1927707c10.84337315 8.13253008 10.84337315 24.39759023 2.71084307 35.24096427-8.13253008 10.84337315-24.39759023 10.84337315-35.24096338 2.71084306l-2.71084394-2.71084306-65.06024063-67.77108458-62.34939755 62.34939756c-5.42168701 5.42168701-10.84337315 8.13253008-16.26506016 8.13253008-5.42168701 0-13.55421709-2.71084307-16.26506016-5.42168701-10.84337315-8.13253008-10.84337315-24.39759023-2.71084395-35.24096338l2.71084395-2.71084395 73.19277071-73.1927707h-62.34939757c-5.42168701 0-13.55421709-2.71084307-16.26506016-8.13253008-8.13253008-2.71084307-8.13253008-8.13253008-8.13253007-13.55421708s2.71084307-13.55421709 8.13253007-16.26506016 10.84337315-8.13253008 16.26506016-8.13253008h62.34939757v-18.97590322h-62.34939757c-13.55421709 0-24.39759023-10.84337315-24.39759023-24.39759112 0-5.42168701 2.71084307-13.55421709 8.13253007-16.26506016 5.42168701-5.42168701 10.84337315-8.13253008 16.26506016-8.13253007h62.34939757v-32.53012032c0-5.42168701 2.71084307-13.55421709 8.13253007-16.26506015s10.84337315-8.13253008 16.26506016-8.13253008c13.55421709 0 24.39759023 10.84337315 24.39759023 24.39759023v32.53012032h54.21686748c5.42168701 0 13.55421709 2.71084307 16.26506016 8.13253007 5.42168701 5.42168701 8.13253008 10.84337315 8.13253008 16.26506016 0 13.55421709-10.84337315 24.39759023-24.39759024 24.39759112h-54.21686748v16.26506015h54.21686748z"  horiz-adv-x="1024" />

    
    <glyph glyph-name="jiagoujianshu" unicode="&#58952;" d="M940.91334717 609.65982393c-15.83577685 18.47507344-39.58944258 29.032258-63.3431083 29.032258h-525.2199416c-18.47507344 0-31.67155459-13.19648115-31.67155459-31.6715537s13.19648115-31.67155459 31.67155459-31.67155459h522.58064502c5.27859229 0 10.55718458-2.63929658 15.83577685-5.27859229 5.27859229-5.27859229 5.27859229-13.19648115 2.63929658-18.47507344l-47.50733145-332.55131924c0-10.55718458-13.19648115-18.47507344-26.3929623-18.47507344h-482.99120156c-13.19648115 2.63929658-23.75366573 13.19648115-26.39296231 29.03225802l-55.42522031 369.5014661-29.032258 155.71847461c-7.91788886 44.86803487-44.86803487 79.17888604-92.37536631 79.17888604h-39.58944258c-18.47507344 0-31.67155459-13.19648115-31.67155459-31.67155459s13.19648115-31.67155459 31.67155459-31.67155371h36.95014688c13.19648115 0 26.3929623-10.55718458 29.032258-26.3929623l29.03225801-155.71847461 50.14662715-369.50146612c5.27859229-47.50733144 42.22873916-81.81818174 89.7360706-84.45747831h485.63049815c44.86803487 0 81.81818174 29.032258 89.7360706 73.90029286l55.42522031 332.55132012c2.63929658 23.75366573-2.63929658 50.14662715-18.47507343 68.62170059zM508.06877187 409.07331357h166.27566006c18.47507344 2.63929658 34.31085029-7.91788886 36.95014688-23.75366571v-7.91788799c2.63929658-15.83577685-10.55718458-29.032258-26.3929623-31.67155459h-174.19354805c-18.47507344-2.63929658-34.31085029 7.91788886-36.95014688 23.75366571v7.91788888c-2.63929658 15.83577685 10.55718458 29.032258 26.3929623 31.6715537h7.91788799zM560.8546956 298.22287383v160.99706777c-2.63929658 18.47507344 7.91788886 34.31085029 23.75366573 34.3108503h7.91788886c15.83577685 2.63929658 29.032258-10.55718458 31.6715546-26.39296231V298.22287383c2.63929658-18.47507344-7.91788886-34.31085029-23.75366573-34.31085029h-7.91788886c-15.83577685-2.63929658-29.032258 10.55718458-31.6715546 26.39296143-2.63929658 2.63929658-2.63929658 5.27859229 0 7.91788886zM259.97493096-0.017595120000009956c0-36.95014688 29.032258-65.98240488 65.98240401-65.98240488s65.98240488 29.032258 65.98240487 65.98240488-29.032258 65.98240488-65.98240487 65.98240489-65.98240488-29.032258-65.98240401-65.98240489z m506.74486728 0c0-36.95014688 29.032258-65.98240488 65.98240489-65.98240488s65.98240488 29.032258 65.98240487 65.98240488-29.032258 65.98240488-65.98240487 65.98240489-65.98240488-29.032258-65.98240489-65.98240489z"  horiz-adv-x="1027" />

    
    <glyph glyph-name="leijichongzhiyonghu" unicode="&#58953;" d="M441.38461573 349.38461572999995h2.76923055c8.30769258 0 13.84615371 5.53846114 16.61538429 11.07692313 5.53846114 8.30769258 8.30769258 16.61538428 5.53846201 27.69230742-2.76923057 8.30769258-8.30769258 13.84615371-13.84615372 19.38461485-5.53846114 2.76923057-11.07692315 2.76923057-16.61538515 2.76923145H386c-11.07692315 2.76923057-24.92307685 5.53846114-36 11.07692315-8.30769258 2.76923057-16.61538428 8.30769258-24.92307685 13.8461537-2.76923057 2.76923057-5.53846114 2.76923057-5.53846201 5.53846114-5.53846114 2.76923057-8.30769258 8.30769258-11.07692227 11.07692314l-11.07692314 11.07692314-2.76923145 2.76923057c-2.76923057 2.76923057-2.76923057 2.76923057-2.76923056 5.53846201-5.53846114 8.30769258-11.07692315 16.61538428-13.84615372 24.92307685-5.53846114 11.07692315-8.30769258 24.92307685-11.07692315 36-2.76923057 13.84615371-2.76923057 24.92307685 0 38.76923057 2.76923057 11.07692315 5.53846114 24.92307685 11.07692315 36 0 5.53846114 5.53846114 13.84615371 11.07692315 22.1538463 0 2.76923057 2.76923057 5.53846114 5.53846113 5.53846113 2.76923057 5.53846114 5.53846114 8.30769258 11.07692314 13.84615458 2.76923057 2.76923057 5.53846114 5.53846114 11.07692315 8.30769171l2.76923057 2.76923056c2.76923057 2.76923057 2.76923057 2.76923057 5.53846201 2.76923145 8.30769258 5.53846114 16.61538428 11.07692315 24.92307685 13.8461537 11.07692315 5.53846114 24.92307685 8.30769258 36 11.07692315h38.76923057c5.53846114 0 11.07692315-2.76923057 16.61538515-2.76923057 16.61538428-5.53846114 33.23076943 5.53846114 38.76923056 22.15384541 2.76923057 8.30769258 2.76923057 16.61538428-2.76923056 22.1538463-2.76923057 8.30769258-11.07692315 13.84615371-19.38461572 16.61538515-16.61538428 2.76923057-33.23076943 5.53846114-52.61538428 5.53846113-38.76923057 0-77.53846113-11.07692315-110.76923145-30.46153799C255.84615372 695.53846114 228.15384629 656.76923057 211.53846114 615.23076943c-13.84615371-44.30769258-13.84615371-91.38461572 0-132.92307685 13.84615371-38.76923057 38.76923057-72 74.76923144-96.92307686 0 0-2.76923057 0-2.76923144-2.76923145-69.23076943-27.69230742-127.38461573-74.76923057-168.92307686-135.69230742-41.53846114-66.46153886-58.15384629-144-49.84615371-221.53846113 0-8.30769258 2.76923057-16.61538428 8.30769258-22.15384629 5.53846114-5.53846114 13.84615371-8.30769258 22.15384628-8.30769258 8.30769258 0 16.61538428 2.76923057 22.1538463 8.30769258 5.53846114 5.53846114 8.30769258 13.84615371 8.30769169 22.15384629-2.76923057 24.92307685-2.76923057 52.61538428 0 77.53846113 5.53846114 41.53846114 19.38461572 80.30769258 41.53846201 113.53846201 5.53846114 5.53846114 8.30769258 13.84615371 13.84615372 19.38461485l-2.76923057-2.76923056 2.76923057 2.76923056s0 2.76923057 2.76923057 2.76923056l2.76923056 2.76923145 8.30769257 8.3076917L228.15384629 282.92307685000003c0-2.76923057 2.76923057 0 5.53846113 0s2.76923057 2.76923057 5.53846201 2.76923057c5.53846114 5.53846114 11.07692315 8.30769258 19.38461485 13.84615372 11.07692315 8.30769258 24.92307685 13.84615371 38.76923145 19.38461571 22.15384628 8.30769258 47.07692315 16.61538428 72 19.38461573 11.07692315 2.76923057 60.92307685 8.30769258 72 11.07692314zM992.46153887 263.53846114c11.07692315 13.84615371 8.30769258 33.23076943-2.76923145 41.53846201-33.23076943 27.69230742-69.23076943 47.07692315-108 63.69230742 16.61538428 11.07692315 33.23076943 22.15384628 47.07692315 36 47.07692315 47.07692315 74.76923057 110.76923057 74.76923057 177.23076943 0 66.46153886-24.92307685 130.15384628-74.76923057 177.23076943-96.92307685 96.92307685-257.53846114 96.92307685-354.46153799 0-47.07692315-47.07692315-74.76923057-110.76923057-74.76923144-177.23076943 0-66.46153886 24.92307685-130.15384628 74.76923144-177.23076943 13.84615371-13.84615371 30.46153887-24.92307685 47.07692314-36-5.53846114-2.76923057-11.07692315-5.53846114-19.38461572-8.30769171-47.07692315-19.38461572-85.84615372-49.84615371-121.84615371-85.84615458-36-36-63.69230742-77.53846113-80.30769257-124.61538428-19.38461572-49.84615371-30.46153887-99.69230742-30.461538-155.07692315v-22.15384628c0-16.61538428 13.84615371-27.69230742 30.461538-27.69230742h2.76923055c16.61538428 0 30.46153887 16.61538428 27.69230831 33.23076943v19.38461484c0 44.30769258 8.30769258 88.61538428 24.92307685 130.1538463 16.61538428 38.76923057 38.76923057 74.76923057 69.23076944 108 58.15384629 60.92307685 141.23076943 96.92307685 227.07692227 96.92307685 36 0 72-5.53846114 108-19.38461485 33.23076943-13.84615371 63.69230742-30.46153887 91.38461571-52.61538515 11.07692315-11.07692315 30.46153887-11.07692315 41.53846202 2.76923057z m-249.23076944 130.15384628c-49.84615371 2.76923057-94.15384628 22.15384628-127.38461571 55.38461573-36 36-55.38461573 83.07692315-55.38461485 135.69230742 0 49.84615371 19.38461572 99.69230742 55.38461485 135.69230829 36 36 83.07692315 55.38461573 135.69230742 55.38461485 105.23076943 0 191.07692315-85.84615372 191.07692313-191.07692314 0-49.84615371-19.38461572-99.69230742-55.38461484-135.69230742-36-36-83.07692315-55.38461573-132.92307685-55.38461573h-11.07692315z m246.46153799-130.15384629zM1158.61538427 111.23076943000001L1058.92307685 114v94.15384628c0 16.61538428-13.84615371 27.69230742-27.69230742 27.69230744-16.61538428 0-27.69230742-13.84615371-27.69230829-27.69230743V114h-96.92307687c-16.61538428 0-27.69230742-13.84615371-27.69230742-27.69230742s13.84615371-27.69230742 27.69230742-27.69230831H1003.53846113v-94.15384541c0-8.30769258 2.76923057-13.84615371 8.30769258-19.38461571s13.84615371-8.30769258 19.38461572-8.30769258c16.61538428 0 27.69230742 13.84615371 27.69230742 27.69230829V58.61538427000005h94.1538463c16.61538428 0 27.69230742 13.84615371 27.69230742 27.69230831 2.76923057 11.07692315-8.30769258 24.92307685-22.15384629 24.92307685z"  horiz-adv-x="1276" />

    
    <glyph glyph-name="leijichengjiaoyonghu" unicode="&#58954;" d="M442.55555528 347.88888867000003h2.77777792c8.33333291 0 13.88888877 5.55555586 16.6666667 11.11111172 5.55555586 8.33333291 8.33333291 16.6666667 5.55555586 27.77777754-2.77777793 8.33333291-8.33333291 13.88888877-13.88888876 19.44444463-5.55555586 2.77777793-11.11111084 2.77777793-16.66666671 2.77777705H387.0000002c-11.11111084 2.77777793-24.99999961 5.55555586-36.11111134 11.11111172-8.33333291 2.77777793-16.6666667 8.33333291-24.99999961 13.88888877-2.77777793 2.77777793-5.55555586 2.77777793-5.55555586 5.55555586-5.55555586 2.77777793-8.33333291 8.33333291-11.11111083 11.11111084l-11.11111172 11.11111083-2.77777793 2.77777794c-2.77777793 2.77777793-2.77777793 2.77777793-2.77777705 5.55555586-5.55555586 8.33333291-11.11111084 16.6666667-13.88888877 24.99999961-5.55555586 11.11111084-8.33333291 24.99999961-11.11111172 36.11111133-2.77777793 13.88888877-2.77777793 24.99999961 0 38.88888838 2.77777793 11.11111084 5.55555586 24.99999961 11.11111172 36.11111133 0 5.55555586 5.55555586 13.88888877 11.11111084 22.22222255 0 2.77777793 2.77777793 5.55555586 5.55555498 5.55555498 2.77777793 5.55555586 5.55555586 8.33333291 11.11111172 13.88888965 2.77777793 2.77777793 5.55555586 5.55555586 11.11111084 8.33333291l2.77777792 2.77777793c2.77777793 2.77777793 2.77777793 2.77777793 5.55555586 2.77777793 8.33333291 5.55555586 16.6666667 11.11111084 24.99999961 13.88888877 11.11111084 5.55555586 24.99999961 8.33333291 36.11111133 11.11111083h38.88888838c5.55555586 0 11.11111084-2.77777793 16.66666671-2.77777792 16.6666667-5.55555586 33.33333339 5.55555586 38.88888925 22.22222256 2.77777793 8.33333291 2.77777793 16.6666667-2.77777793 22.22222255-2.77777793 8.33333291-11.11111084 13.88888877-19.44444463 16.6666667-16.6666667 2.77777793-33.33333339 5.55555586-52.77777715 5.55555499-38.88888926 0-77.77777763-11.11111084-111.11111191-30.55555547C256.44444453 695.1111114299999 228.66666699 656.22222217 212.00000029 614.55555586c-13.88888877-44.44444424-13.88888877-91.66666641 0-133.33333359 13.88888877-38.88888926 38.88888926-72.22222266 74.99999971-97.22222227 0 0-2.77777793 0-2.77777793-2.77777792-69.44444472-27.77777754-127.77777773-74.99999971-169.44444405-136.11111065-41.66666631-66.6666668-58.333333-144.44444443-50.0000001-222.22222295 0-8.33333291 2.77777793-16.6666667 8.33333292-22.22222168 5.55555586-5.55555586 13.88888877-8.33333291 22.22222255-8.3333338 8.33333291 0 16.6666667 2.77777793 22.22222257 8.3333338 5.55555586 5.55555586 8.33333291 13.88888877 8.3333329 22.22222167-2.77777793 24.99999961-2.77777793 52.77777803 0 77.77777853 5.55555586 41.66666631 19.44444463 80.55555557 41.66666632 113.88888896 5.55555586 5.55555586 8.33333291 13.88888877 13.88888964 19.44444375l-2.77777792-2.77777705 2.77777792 2.77777705s0 2.77777793 2.77777705 2.77777792l2.77777793 2.77777794 8.33333379 8.33333291L228.66666699 281.22222187c0-2.77777793 2.77777793 0 5.55555498 0s2.77777793 2.77777793 5.55555586 2.77777794c5.55555586 5.55555586 11.11111084 8.33333291 19.44444464 13.88888876 11.11111084 8.33333291 24.99999961 13.88888877 38.88888837 19.44444463 22.22222256 8.33333291 47.22222217 16.6666667 72.22222265 19.44444463 11.11111084 2.77777793 61.11111094 8.33333291 72.22222178 11.11111084zM1070.3333331 175.66666669999995c-11.11111084 11.11111084-27.77777754 11.11111084-41.6666663 0l-180.55555576-163.88888907-61.11111094 72.22222266c-11.11111084 11.11111084-27.77777754 11.11111084-38.88888926 2.77777705-11.11111084-11.11111084-13.88888877-27.77777754-2.77777793-41.6666663l100.00000019-108.33333311 2.77777794-2.77777793 225 200.00000039c8.33333291 13.88888877 8.33333291 30.55555547-2.77777794 41.66666631zM750.88888877 331.22222196999996c36.11111133 0 72.22222266-5.55555586 108.33333311-19.44444463 33.33333339-13.88888877 63.88888886-30.55555547 91.66666728-52.77777714 13.88888877-11.11111084 30.55555547-8.33333291 41.66666631 2.77777793 11.11111084 13.88888877 8.33333291 33.33333339-2.77777794 41.6666663-33.33333339 27.77777754-69.44444472 47.22222217-108.3333331 63.88888887 16.6666667 11.11111084 33.33333339 22.22222256 47.22222217 36.11111133 47.22222217 47.22222217 74.99999971 111.11111104 74.99999971 177.77777783 0 66.6666668-24.99999961 130.55555566-74.99999971 177.77777783-97.22222227 97.22222227-258.3333334 97.22222227-355.55555566 0-47.22222217-47.22222217-74.99999971-111.11111104-74.99999971-177.77777782 0-66.6666668 24.99999961-130.55555566 74.99999971-177.77777784 13.88888877-13.88888877 30.55555547-24.99999961 47.22222216-36.11111133-5.55555586-2.77777793-11.11111084-5.55555586-19.44444463-8.33333291-47.22222217-19.44444463-86.11111143-50.0000001-122.22222187-86.11111143-36.11111133-36.11111133-63.88888886-77.77777763-80.55555556-124.9999998-19.44444463-50.0000001-30.55555547-100.0000002-30.55555547-155.55555615v-22.22222168c0-16.6666667 13.88888877-27.77777754 30.55555547-27.77777842h2.77777792c16.6666667 0 30.55555547 16.6666667 27.77777755 33.3333334v19.44444463c0 44.44444424 8.33333291 88.88888847 25.00000048 130.55555566 16.6666667 38.88888926 38.88888926 74.99999971 69.44444385 108.33333311 58.333333 61.11111094 141.66666651 97.22222227 227.77777793 97.22222226z m-5.55555586 61.11111094c-50.0000001 2.77777793-94.44444434 22.22222256-127.77777773 55.55555595-36.11111133 36.11111133-55.55555596 83.33333349-55.55555508 136.11111153 0 50.0000001 19.44444463 100.0000002 55.55555508 136.11111065 36.11111133 36.11111133 83.33333349 55.55555596 136.11111152 55.55555595 105.55555518 0 191.6666666-86.11111143 191.6666666-191.6666666 0-50.0000001-19.44444463-100.0000002-55.55555596-136.11111153-36.11111133-36.11111133-83.33333349-55.55555596-133.33333271-55.55555595h-11.11111172z m247.22222256-130.55555478z"  horiz-adv-x="1157" />

    
    </font>
</defs>
</svg>
